最近看过此主题的会员

查看: 370|回复: 39

美乡村老将Willie Nelson爵士翻唱《That's Life》2021/24bit_44.1kHz/BD

[复制链接]

223

主题

868

帖子

4万

积分

天王巨星

Rank: 7Rank: 7Rank: 7

积分
44257

灌水勋章

QQ
发表于 2021-2-27 08:00:01 | 显示全部楼层 |阅读模式

注册会员,获得无损资源下载地址,享受高品质音乐。

您需要 登录 才可以下载或查看,没有帐号?注册

x
本帖最后由 WoW汪 于 2021-2-27 20:19 编辑
Cover.jpg

Album-Release:
2021
HRA-Release:
26.02.2021
Genre: Country

Tracklist
1Nice Work If You Can Get It
2:36
2Just In Time
2:26
3Cottage For Sale
2:54
4I've Got You Under My Skin
3:35
5You Make Me Feel So Young
2:53
6I Won't Dance
3:26
7That's Life
3:40
8Luck Be A Lady
3:05
9In The Wee Small Hours Of The Morning
2:59
10Learning' The Blues
3:31
11Lonesome Road
3:44


Credit

* 专辑详细内容可参考:
* 楼主注:Willie 和 Frank Sinatra是最为亲密的一对好友

游客,本帖隐藏的内容需要积分高于 200 才可浏览,您当前积分为 0

评分

参与人数 1CD +160 收起 理由
最终之战 + 160

查看全部评分





美南方饶舌:T.I. (T.I.P.)《Down With The King 》2006/FLAC/H+X+C
(应求)美乡村/乡村流行:Roy Clark《4CD》1994-2008/FLAC/CT

Click the icon and register for free

223

主题

868

帖子

4万

积分

天王巨星

Rank: 7Rank: 7Rank: 7

积分
44257

灌水勋章

QQ
 楼主| 发表于 2021-2-27 18:58:51 | 显示全部楼层
DR Value
foobar2000 1.4.8 / Dynamic Range Meter 1.1.1
log date: 2021-02-26 08:34:14

--------------------------------------------------------------------------------
Analyzed: Willie Nelson / That's Life
--------------------------------------------------------------------------------

DR         Peak         RMS     Duration Track
--------------------------------------------------------------------------------
DR8       -0.02 dB   -10.27 dB      2:35 01-Nice Work If You Can Get It
DR8       -0.02 dB    -9.67 dB      2:26 02-Just In Time
DR9       -0.02 dB   -11.90 dB      2:54 03-Cottage For Sale
DR8       -0.02 dB    -9.53 dB      3:35 04-I've Got You Under My Skin
DR8       -0.02 dB   -10.56 dB      2:53 05-You Make Me Feel So Young
DR7       -0.02 dB   -10.23 dB      3:26 06-I Won't Dance (feat. Diana Krall)
DR9       -0.02 dB   -11.23 dB      3:40 07-That's Life
DR8       -0.02 dB    -9.96 dB      3:05 08-Luck Be a Lady
DR11      -0.02 dB   -13.54 dB      2:59 09-In the Wee Small Hours of the Morning
DR9       -0.02 dB   -11.23 dB      3:31 10-Learnin' the Blues
DR8       -0.02 dB   -10.27 dB      3:42 11-Lonesome Road
--------------------------------------------------------------------------------

Number of tracks:  11
Official DR value: DR8
Samplerate:        44100 Hz
Channels:          2
Bits per sample:   24
Bitrate:           1511 kbps
Codec:             FLAC
================================================================================



Click the icon and register for free

1

主题

1358

帖子

1011

积分

职业歌手

Rank: 3Rank: 3

积分
1011
发表于 2021-2-27 08:58:58 | 显示全部楼层
这个很有味道的啊

9

主题

434

帖子

987

积分

职业歌手

Rank: 3Rank: 3

积分
987
发表于 2021-2-27 09:08:20 | 显示全部楼层
姜还是老的辣 感谢cd包

2

主题

2179

帖子

920

积分

职业歌手

Rank: 3Rank: 3

积分
920

社区QQ达人

发表于 2021-2-27 09:24:09 | 显示全部楼层
这张不错,谢谢楼主了

0

主题

1376

帖子

780

积分

职业歌手

Rank: 3Rank: 3

积分
780
发表于 2021-2-27 09:37:14 | 显示全部楼层
不用猜,一定好听..........

0

主题

741

帖子

1072

积分

职业歌手

Rank: 3Rank: 3

积分
1072
发表于 2021-2-27 09:42:47 | 显示全部楼层
老当益壮,非常高产。

0

主题

1168

帖子

1740

积分

当红偶像

Rank: 4

积分
1740
发表于 2021-2-27 09:47:37 | 显示全部楼层
LONG LONG TIME NO SEE WILSON GREAT

0

主题

4075

帖子

6270

积分

人气天王

Rank: 5Rank: 5

积分
6270
发表于 2021-2-27 10:11:25 | 显示全部楼层
太好了,元宵节的

2

主题

340

帖子

917

积分

职业歌手

Rank: 3Rank: 3

积分
917
发表于 2021-2-27 10:17:38 | 显示全部楼层
他的专辑要收藏
谢谢分享

0

主题

203

帖子

500

积分

职业歌手

Rank: 3Rank: 3

积分
500

社区QQ达人

发表于 2021-2-27 10:26:05 | 显示全部楼层
乡村歌曲的老将演唱经典的爵士歌曲,肯定相当引人注目,关键是这位老将对于爵士音歌曲的节奏的领悟。
integral

3

主题

2245

帖子

1440

积分

当红偶像

Rank: 4

积分
1440
发表于 2021-2-27 11:12:05 | 显示全部楼层
他最近很活躍呢!去年才出一張

2

主题

587

帖子

1692

积分

当红偶像

Rank: 4

积分
1692
发表于 2021-2-27 12:36:35 | 显示全部楼层
收了。感谢分享

0

主题

1517

帖子

2889

积分

当红偶像

Rank: 4

积分
2889
发表于 2021-2-27 14:11:35 | 显示全部楼层
这个好,谢谢楼主分享

0

主题

2302

帖子

3157

积分

当红偶像

Rank: 4

积分
3157
发表于 2021-2-27 16:46:54 | 显示全部楼层
乡村乐旋律都不错~~~~~~~~~~~~~~

3

主题

1112

帖子

3500

积分

当红偶像

Rank: 4

积分
3500

社区QQ达人

发表于 2021-2-27 18:13:37 | 显示全部楼层
真的是老当益壮啊,还一直在发专辑呢!
您需要登录后才可以回帖 登录 | 注册

本版积分规则

快速回复 返回顶部 返回列表