最近看过此主题的会员

查看: 93|回复: 2

[欧美] 原抓:波兰黑金 Blaze of Perdition《The Harrowing of Hearts》2020/FLAC/BD

[复制链接]
 成长值: 38100

1万

主题

2万

帖子

49万

积分

音乐掌门人

Rank: 20Rank: 20Rank: 20Rank: 20Rank: 20

积分
491592

名人勋章社区QQ达人分享勋章精华帖达人灌水勋章

发表于 2020-5-21 11:27:15 | 显示全部楼层 |阅读模式

注册会员,获得无损资源下载地址,享受高品质音乐。

您需要 登录 才可以下载或查看,没有帐号?注册

x
logo.jpg
Band.jpg

Blaze of Perdition
Country of origin:Poland
Location:Lublin, Lubelskie
Status:Active
Formed in:2007
Genre:Black Metal
Lyrical themes:Occultism, Death, Spirituality, Altered States
Current label:Metal Blade Records
Years active:2004-2007 (as Perdition), 2007-2013, 2014-present
===========================
Cover.jpg

01. Suffering Made Bliss 07:51
02. With Madman’s Faith 07:19
03. Transmutation of Sins 05:59
04. Królestwo Niebieskie 06:54
05. What Christ Has Kept Apart 08:14
06. The Great Seducer 09:29
07. Moonchild 05:42

===========================
度盘下载(最终的金属仓库)
游客,如果您要查看本帖隐藏内容请回复




德版黑胶原抓:Warbringer - Weapons Of Tomorrow 2020 [24/192] 3.30G WAV/BD
偶尔原抓:杨乐《自言自语 (上下) Talking To Myself 1-2》2017/WAV

本人发布的资源,有密码的话都是:www.cdbao.net
关于链接失效的说明(度盘好友分享的说明)
https://www.cdbao.net/thread-117499-1-1.html     
紧急通告:115,快传等网盘取消了分享功能礼包码链接全部失效
https://www.cdbao.net/thread-122759-1-1.html
 成长值: 38100

1万

主题

2万

帖子

49万

积分

音乐掌门人

Rank: 20Rank: 20Rank: 20Rank: 20Rank: 20

积分
491592

名人勋章社区QQ达人分享勋章精华帖达人灌水勋章

发表于 2020-5-21 11:33:20 | 显示全部楼层
logo.jpg
Band.jpg
1.jpg
2.jpg
3.jpg
4.jpg
5.jpg
6.jpg
7.jpg
8.jpg
9.jpg
10.jpg
11.jpg
12.jpg
13.jpg



本人发布的资源,有密码的话都是:www.cdbao.net
关于链接失效的说明(度盘好友分享的说明)
https://www.cdbao.net/thread-117499-1-1.html     
紧急通告:115,快传等网盘取消了分享功能礼包码链接全部失效
https://www.cdbao.net/thread-122759-1-1.html
 成长值: 38100

1万

主题

2万

帖子

49万

积分

音乐掌门人

Rank: 20Rank: 20Rank: 20Rank: 20Rank: 20

积分
491592

名人勋章社区QQ达人分享勋章精华帖达人灌水勋章

发表于 2020-5-21 11:34:36 | 显示全部楼层
Exact Audio Copy V1.3 from 2. September 2016

EAC extraction logfile from 16. February 2020, 13:43

Blaze of Perdition / The Harrowing of Hearts

Used drive  : HP      DVD Writer 1170d   Adapter: 1  ID: 1

Read mode               : Secure
Utilize accurate stream : Yes
Defeat audio cache      : Yes
Make use of C2 pointers : No

Read offset correction                      : 6
Overread into Lead-In and Lead-Out          : No
Fill up missing offset samples with silence : Yes
Delete leading and trailing silent blocks   : No
Null samples used in CRC calculations       : Yes
Used interface                              : Native Win32 interface for Win NT & 2000

Used output format              : User Defined Encoder
Selected bitrate                : 1024 kBit/s
Quality                         : High
Add ID3 tag                     : No
Command line compressor         : C:\Program Files (x86)\Exact Audio Copy\Flac\flac.exe
Additional command line options : -V -8 -T "Date=%year%" -T "Genre=%genre%" %source%

TOC of the extracted CD

     Track |   Start  |  Length  | Start sector | End sector
    ---------------------------------------------------------
        1  |  0:00.00 |  7:51.00 |         0    |    35324
        2  |  7:51.00 |  7:19.37 |     35325    |    68286
        3  | 15:10.37 |  5:59.00 |     68287    |    95211
        4  | 21:09.37 |  6:54.09 |     95212    |   126270
        5  | 28:03.46 |  8:14.00 |    126271    |   163320
        6  | 36:17.46 |  9:29.00 |    163321    |   205995
        7  | 45:46.46 |  5:42.04 |    205996    |   231649

Range status and errors

Selected range

     Filename C:\EAC\ungern666\Blaze of Perdition - The Harrowing of Hearts.wav

     Peak level 96.5 %
     Extraction speed 5.6 X
     Range quality 100.0 %
     Test CRC CE2103DF
     Copy CRC CE2103DF
     Copy OK

No errors occurred

AccurateRip summary

Track  1  not present in database
Track  2  not present in database
Track  3  not present in database
Track  4  not present in database
Track  5  not present in database
Track  6  not present in database
Track  7  not present in database

None of the tracks are present in the AccurateRip database

End of status report

---- CUETools DB Plugin V2.1.6

[CTDB TOCID: .YBuBommgP7wu9cCYOHzfJuiTnc-] disk not present in database
Submit result: .YBuBommgP7wu9cCYOHzfJuiTnc- has been uploaded

==== Log checksum 9D1274B84DE5FCDB2731240225D57DA6E7167559E68E8ACF600FF1A8A9EBD85A ====



本人发布的资源,有密码的话都是:www.cdbao.net
关于链接失效的说明(度盘好友分享的说明)
https://www.cdbao.net/thread-117499-1-1.html     
紧急通告:115,快传等网盘取消了分享功能礼包码链接全部失效
https://www.cdbao.net/thread-122759-1-1.html
您需要登录后才可以回帖 登录 | 注册

本版积分规则

快速回复 返回顶部 返回列表