最近看过此主题的会员

查看: 146|回复: 14

艾莉婕 Alizée《Moi... Lolita》2001_EP/DSD_128_DSF/1/5.6MHz/115

[复制链接]
 成长值: 38070

1万

主题

2万

帖子

49万

积分

音乐掌门人

Rank: 20Rank: 20Rank: 20Rank: 20Rank: 20

积分
491511

名人勋章社区QQ达人分享勋章精华帖达人灌水勋章

发表于 2020-5-20 00:04:02 | 显示全部楼层 |阅读模式

注册会员,获得无损资源下载地址,享受高品质音乐。

您需要 登录 才可以下载或查看,没有帐号?注册

x
Front.jpg
Alizée - Moi... Lolita

xЖанр: Electronic, Pop
Год выпуска: 2001
Производитель: Italy
Релиз: Discogs
Лейбл: Do It Yourself Entertainment, Polydor
Аудио кодек: DSD
Тип рипа: tracks
Формат записи: 1bit/5,6MHz
Формат раздачи: 1bit/5,6MHz
Продолжительность: 00:19:09
Back.jpg
1. Moi... Lolita (Lola Extended Remix)
2. Moi... Lolita (Single Version)
3. Moi... Lolita (Illicit Full Vocal Mix)


Источник оцифровки: автором раздачи
Код класса состояния винила: Good
Устройство воспроизведения: Technics 1210 mk2
Головка звукоснимателя: Grado Green 1
Предварительный усилитель: Project PhonoBox S2 (43db), Korg DS-DAC-10R (20db)
АЦП: Korg DS-DAC-10R
Программа-оцифровщик: Korg AudioGate 4
Обработка: Нет

foobar2000 1.3.16 / Замер динамического диапазона (DR) 1.1.1

Дата отчёта: 2018-10-03 00:43:02


--------------------------------------------------------------------------------

Анализ: Alizée / Moi... Lolita

--------------------------------------------------------------------------------


DR Пики RMS Продолжительность трека

--------------------------------------------------------------------------------

DR10 -3.29 дБ -16.85 дБ 6:36 01-Moi... Lolita (Lola Extended Remix)

DR10 -6.67 дБ -18.25 дБ 4:24 02-Moi... Lolita (Single Version)

DR10 -4.29 дБ -16.91 дБ 8:12 03-Moi... Lolita (Illicit Full Vocal Mix)

--------------------------------------------------------------------------------


Количество треков: 3

Реальные значения DR: DR10


Частота: 5644800 Гц / Частота PCM: 88200 Гц

Каналов: 2

Разрядность: 1

Битрейт: 11290 кбит/с

Кодек: DSD128

================================================================================

============================
115下载:
游客,如果您要查看本帖隐藏内容请回复




美流行:Taylor Swift《City Of Lover》巴黎演唱会/24_48/天翼网盘
澳洲天后:Delta Goodrem《6CD》2003-2016/FLAC/BD

本人发布的资源,有密码的话都是:www.cdbao.net
关于链接失效的说明(度盘好友分享的说明)
https://www.cdbao.net/thread-117499-1-1.html     
紧急通告:115,快传等网盘取消了分享功能礼包码链接全部失效
https://www.cdbao.net/thread-122759-1-1.html
 成长值: 38070

1万

主题

2万

帖子

49万

积分

音乐掌门人

Rank: 20Rank: 20Rank: 20Rank: 20Rank: 20

积分
491511

名人勋章社区QQ达人分享勋章精华帖达人灌水勋章

发表于 2020-5-20 00:20:45 | 显示全部楼层

本人发布的资源,有密码的话都是:www.cdbao.net
关于链接失效的说明(度盘好友分享的说明)
https://www.cdbao.net/thread-117499-1-1.html     
紧急通告:115,快传等网盘取消了分享功能礼包码链接全部失效
https://www.cdbao.net/thread-122759-1-1.html

0

主题

187

帖子

809

积分

职业歌手

Rank: 3Rank: 3

积分
809
发表于 2020-5-20 08:08:40 来自手机 | 显示全部楼层
感谢楼主分享,下来听听

0

主题

243

帖子

379

积分

乐坛新星

Rank: 2

积分
379
发表于 2020-5-20 08:49:56 | 显示全部楼层
感谢楼主无私分享艾琳婕专辑

0

主题

380

帖子

561

积分

职业歌手

Rank: 3Rank: 3

积分
561
发表于 2020-5-20 08:55:37 | 显示全部楼层
感谢战总分享!!

4

主题

1728

帖子

672

积分

职业歌手

Rank: 3Rank: 3

积分
672
发表于 2020-5-20 09:00:41 | 显示全部楼层
封面真不像Lolita....

0

主题

17

帖子

81

积分

新人会员,请认真回复,若恶意回复,直接封号

Rank: 1

积分
81
发表于 2020-5-20 09:46:08 | 显示全部楼层
俄罗斯歌曲吗,下来听听

0

主题

55

帖子

52

积分

新人会员,请认真回复,若恶意回复,直接封号

Rank: 1

积分
52
发表于 2020-5-20 09:46:29 | 显示全部楼层
法国小美女的歌,真心不错,谢谢分享!
integral

0

主题

1563

帖子

669

积分

职业歌手

Rank: 3Rank: 3

积分
669
发表于 2020-5-20 11:32:07 | 显示全部楼层
非常感谢分享!!

2

主题

260

帖子

311

积分

乐坛新星

Rank: 2

积分
311
发表于 2020-5-20 12:49:31 | 显示全部楼层
很多年前听过他的歌,都快忘了什么感觉了
 成长值: 140

0

主题

1035

帖子

611

积分

VIP1

Rank: 4

积分
611
发表于 2020-5-20 13:02:53 | 显示全部楼层
建议不要用115了

0

主题

28

帖子

87

积分

新人会员,请认真回复,若恶意回复,直接封号

Rank: 1

积分
87
发表于 2020-5-20 17:26:58 | 显示全部楼层
十分感谢!!!!!!!!!!!!!!!!!!!!!!!!!!!!!!!!!!!!

14

主题

384

帖子

1709

积分

当红偶像

Rank: 4

积分
1709
发表于 2020-5-20 20:37:50 | 显示全部楼层
115现在能够下了?

0

主题

51

帖子

130

积分

新人会员,请认真回复,若恶意回复,直接封号

Rank: 1

积分
130
发表于 5 天前 | 显示全部楼层
艾莉婕  法国小天后  我喜欢

0

主题

8

帖子

64

积分

新人会员,请认真回复,若恶意回复,直接封号

Rank: 1

积分
64
发表于 4 天前 | 显示全部楼层
总算是找到他的资源了,非常感谢!!!
您需要登录后才可以回帖 登录 | 注册

本版积分规则

快速回复 返回顶部 返回列表