最近看过此主题的会员

查看: 105|回复: 12

爵士融合:Spiritczualic Enhancement Center《Transporting Salt》2020/FLAC/CT

[复制链接]
 成长值: 38055

1万

主题

2万

帖子

49万

积分

音乐掌门人

Rank: 20Rank: 20Rank: 20Rank: 20Rank: 20

积分
491509

名人勋章社区QQ达人分享勋章精华帖达人灌水勋章

发表于 2020-5-10 11:11:04 | 显示全部楼层 |阅读模式

注册会员,获得无损资源下载地址,享受高品质音乐。

您需要 登录 才可以下载或查看,没有帐号?注册

x
Spiritczualic Enhancement Center
"Transporting Salt" — 2020
___________________________

cover.jpg
Jam Band | Krautrock | Jazz Fusion
SPIRITCZUALIC ENHANCEMENT CENTER (formed): Earth
Crash Symbols (United States)
WEB | Album
FLAC (*.flac)
tracks


— track listing

01. On the Way Back From Wadi Rum (06:28)
02. Want Him to Hear That (07:20)
03. Das ende (04:30)
04. Where Is My Palm Leaf? (04:16)
05. There Was Nothing But the Swamp (05:55)
06. The Impossibility of Trying to Repeat Something Unplanned (05:57)
07. Beware, Trains! (08:20)
08. The Hajj of Mansa Musa (04:33)
09. Dreaming of Miles Davis (06:22)
10. Transporting Salt (10:40)
11. Divide by Two (03:52)

— total length (01:08:08)






美乡村民谣唱作者:John Prine《John Prine》FLAC+CUE/百度云
2020年5月8日发行新单曲 2020/FLAC/BD+CT

本人发布的资源,有密码的话都是:www.cdbao.net
关于链接失效的说明(度盘好友分享的说明)
https://www.cdbao.net/thread-117499-1-1.html     
紧急通告:115,快传等网盘取消了分享功能礼包码链接全部失效
https://www.cdbao.net/thread-122759-1-1.html
 成长值: 38055

1万

主题

2万

帖子

49万

积分

音乐掌门人

Rank: 20Rank: 20Rank: 20Rank: 20Rank: 20

积分
491509

名人勋章社区QQ达人分享勋章精华帖达人灌水勋章

发表于 2020-5-10 11:12:43 | 显示全部楼层
foobar2000 1.3.9 / Dynamic Range Meter 1.1.1
log date: 2020-05-08 01:36:29

--------------------------------------------------------------------------------
Analyzed: Spiritczualic Enhancement Center / Transporting Salt
--------------------------------------------------------------------------------

DR         Peak         RMS     Duration Track
--------------------------------------------------------------------------------
DR8       -0.22 dB   -10.01 dB      6:27 01-On the Way Back From Wadi Rum
DR9       -0.22 dB   -11.44 dB      7:19 02-Want Him to Hear That
DR8       -0.22 dB    -9.67 dB      4:29 03-Das ende
DR9       -0.22 dB   -10.33 dB      4:16 04-Where Is My Palm Leaf?
DR8       -0.22 dB   -10.29 dB      5:55 05-There Was Nothing But the Swamp
DR8       -0.22 dB    -9.75 dB      5:57 06-The Impossibility of Trying to Repeat Something Unplanned
DR9       -0.22 dB   -10.25 dB      8:20 07-Beware, Trains!
DR9       -0.22 dB   -11.97 dB      4:33 08-The Hajj of Mansa Musa
DR9       -0.22 dB   -12.13 dB      6:22 09-Dreaming of Miles Davis
DR8       -0.22 dB   -10.33 dB     10:39 10-Transporting Salt
DR8       -0.22 dB    -9.80 dB      3:52 11-Divide by Two
--------------------------------------------------------------------------------

Number of tracks:  11
Official DR value: DR8

Samplerate:        44100 Hz
Channels:          2
Bits per sample:   16
Bitrate:           811 kbps
Codec:             FLAC
================================================================================
-----------------------

DON'T MODIFY THIS FILE

-----------------------

PERFORMER: auCDtect Task Manager, ver. 1.6.0 RC1 build 1.6.0.1
Copyright (c) 2008-2010 y-soft. All rights reserved

ANALYZER: auCDtect: CD records authenticity detector, version 0.8.2
Copyright (c) 2004 Oleg Berngardt. All rights reserved.
Copyright (c) 2004 Alexander Djourik. All rights reserved.

FILE: 11. Divide by Two.flac
  Size: 23643063 Hash: C1BE25570B9A14C65620CAFCCCD734FA Accuracy: -m0
  Conclusion: CDDA 100%
  Signature: 1B61C093AE736DEA90F25CB3B497A28B25AE1557
FILE: 10. Transporting Salt.flac
  Size: 70804892 Hash: 7490A501AB13811A139FA416DC41BEBD Accuracy: -m0
  Conclusion: CDDA 100%
  Signature: 792A9187C6D43DE59AF8D58A3DD03754AC12B270
FILE: 09. Dreaming of Miles Davis.flac
  Size: 40303247 Hash: 513EC5277037CC4BFE1BE9710C16AF37 Accuracy: -m0
  Conclusion: CDDA 100%
  Signature: 541468DC272CF76C5A2CDD9EC14B31B85E6E0D3E
FILE: 08. The Hajj of Mansa Musa.flac
  Size: 31380522 Hash: FB98F288CE059559A3F5489407B65340 Accuracy: -m0
  Conclusion: CDDA 100%
  Signature: 845F160A8BF1462E840BA889E023A371D8D6FABC
FILE: 07. Beware, Trains!.flac
  Size: 58249617 Hash: C578DAC709E619BDEBBEAD6AE322FBA2 Accuracy: -m0
  Conclusion: CDDA 100%
  Signature: 9F945189B0DEA7041DE103A8C78F24C004BDB4F0
FILE: 06. The Impossibility of Trying to Repeat Something Unplanned.flac
  Size: 34047372 Hash: 4C16F6A1520BC4AE34736FC9C65FACD1 Accuracy: -m0
  Conclusion: CDDA 100%
  Signature: 3973D47C6873FC88049B3AC9B4AD0F084857DBAF
FILE: 05. There Was Nothing But the Swamp.flac
  Size: 39814051 Hash: 77D34F434A5B4A38F7BEDC9A09B18A9F Accuracy: -m0
  Conclusion: CDDA 100%
  Signature: FD07DA32BEC3085BAC9CE3A5D52392AB90D5631A
FILE: 04. Where Is My Palm Leaf.flac
  Size: 28832289 Hash: 4628718B415722E3C7D942E584743B6A Accuracy: -m0
  Conclusion: CDDA 100%
  Signature: C2FA5E17D695C87363CFFD3C4B62A2FC3ED5B0FA
FILE: 03. Das ende.flac
  Size: 31607778 Hash: 55CE09FBC4CD982D783448961F9E9806 Accuracy: -m0
  Conclusion: CDDA 100%
  Signature: BA6168AFA8F9D465D7F3C12FBB9C24A5E926CC10
FILE: 02. Want Him to Hear That.flac
  Size: 49880674 Hash: FBBE2346F466640C0047092C44123D9C Accuracy: -m0
  Conclusion: CDDA 100%
  Signature: 3C3BD8A751CBC7D629EF679445B1442F9949D6BF
FILE: 01. On the Way Back From Wadi Rum.flac
  Size: 40837176 Hash: 111548617669B0F104C3F5ADEA947127 Accuracy: -m0
  Conclusion: CDDA 100%
  Signature: AAE2383E4754CF01E5B79D800F24EB484A843AFE



诚通下载:


游客,如果您要查看本帖隐藏内容请回复


本人发布的资源,有密码的话都是:www.cdbao.net
关于链接失效的说明(度盘好友分享的说明)
https://www.cdbao.net/thread-117499-1-1.html     
紧急通告:115,快传等网盘取消了分享功能礼包码链接全部失效
https://www.cdbao.net/thread-122759-1-1.html

0

主题

904

帖子

1万

积分

人气天王

Rank: 5Rank: 5

积分
10737

社区QQ达人

发表于 2020-5-10 12:25:07 | 显示全部楼层
没听过这种曲风,谢谢战大分享。

1

主题

1172

帖子

1119

积分

职业歌手

Rank: 3Rank: 3

积分
1119
发表于 2020-5-10 14:29:15 | 显示全部楼层
这应该是味道不错的砖

1

主题

15

帖子

141

积分

新人会员,请认真回复,若恶意回复,直接封号

Rank: 1

积分
141
发表于 2020-5-10 16:39:17 | 显示全部楼层
融合爵士,内容一定很精彩~

0

主题

696

帖子

1105

积分

职业歌手

Rank: 3Rank: 3

积分
1105
发表于 2020-5-10 17:46:33 | 显示全部楼层
不知道啥味道,尝尝吧

0

主题

232

帖子

204

积分

乐坛新星

Rank: 2

积分
204

社区QQ达人

发表于 2020-5-10 18:28:45 | 显示全部楼层
感谢大大                 

0

主题

378

帖子

558

积分

职业歌手

Rank: 3Rank: 3

积分
558
发表于 2020-5-10 19:19:34 | 显示全部楼层
看起来不错,感谢战总分享!

52

主题

733

帖子

1万

积分

流行教主

Rank: 6Rank: 6

积分
13552

社区QQ达人

发表于 2020-5-11 01:27:41 | 显示全部楼层
尝试一下,谢谢战总分享

0

主题

855

帖子

2118

积分

当红偶像

Rank: 4

积分
2118
发表于 2020-5-11 10:48:55 | 显示全部楼层
看起来不错,谢谢分享

1

主题

923

帖子

1407

积分

当红偶像

Rank: 4

积分
1407

社区QQ达人

发表于 2020-5-11 11:47:26 | 显示全部楼层
爵士之风 谢谢楼主分享

0

主题

1300

帖子

1257

积分

职业歌手

Rank: 3Rank: 3

积分
1257
发表于 2020-5-11 23:33:33 | 显示全部楼层
楼主的资源都是好的。谢谢分享。

13

主题

878

帖子

2260

积分

当红偶像

Rank: 4

积分
2260
发表于 2020-5-12 13:02:48 | 显示全部楼层
Fusion厉害,看封面应该不错
您需要登录后才可以回帖 登录 | 注册

本版积分规则

快速回复 返回顶部 返回列表