最近看过此主题的会员

查看: 83|回复: 1

[欧美摇滚] 克罗地亚独立摇滚:Azra《Azra》1980/FLAC/BD

[复制链接]

61

主题

366

帖子

1万

积分

流行教主

Rank: 6Rank: 6

积分
11498

灌水勋章

发表于 2020-4-26 07:00:00 | 显示全部楼层 |阅读模式

注册会员,获得无损资源下载地址,享受高品质音乐。

您需要 登录 才可以下载或查看,没有帐号?注册

x
Azra.jpeg
Azra
wiki:

Memmbers:
Branimir Štulić – Guitars, lead vocals
Mišo Hrnjak – Bass
Boris Leiner – Drums
Additional musicians:
Džimi, Harma, Gec, duo Baraccude – Backup vocals
Gec - Harmonica in track 2

Azra front.jpg
Azra (1980)
Record Company;Croatia Records
Format:FLAC
Length:00:39:06
Tracklist:
01 - Jablan 02:33
02 - Uradi nešto 03:17
03 - Teško vrijeme 03:49
04 - Tople usne žene 03:02
05 - Vrijeme odluke 03:31
06 - Gracija 02:45
07 - Krvava Meri 03:03
08 - Marina 03:03
09 - Ne mogu pomoći nikome od nas 03:50
10 - Iggy Pop 03:48
11 - Žena drugog sistema 02:50
12 - Obrati pažnju na posljednju stvar 03:33
foobar2000 1.4.3 / Dynamic Range Meter 1.1.1
log date: 2020-04-11 11:16:20
--------------------------------------------------------------------------------
Analyzed: Azra / Azra
--------------------------------------------------------------------------------
DR         Peak         RMS     Duration Track
--------------------------------------------------------------------------------
DR14       0.00 dB   -17.33 dB      2:34 01-Jablan
DR14      -2.16 dB   -18.87 dB      3:18 02-Uradi nesto
DR15      -0.29 dB   -18.52 dB      3:49 03-Tesko vrijeme
DR14      -0.75 dB   -17.92 dB      3:02 04-Tople usne zene
DR15      -2.08 dB   -20.60 dB      3:30 05-Vrijeme odluke
DR14       0.00 dB   -18.56 dB      2:46 06-Gracija
DR14      -2.35 dB   -18.19 dB      3:02 07-Krvava Meri
DR15      -2.40 dB   -19.29 dB      3:03 08-Marina
DR15       0.00 dB   -17.50 dB      3:49 09-Ne mogu pomoci nikome od nas
DR16      -1.42 dB   -19.79 dB      3:52 10-Iggy Pop
DR16       0.00 dB   -18.31 dB      2:53 11-Zena drugog sistema
DR14       0.00 dB   -17.38 dB      3:33 12-Obrati paznju na posljednju stvar
--------------------------------------------------------------------------------
Number of tracks:  12
Official DR value: DR15
Samplerate:        44100 Hz
Channels:          2
Bits per sample:   16
Bitrate:           843 kbps
Codec:             FLAC
================================================================================

游客,如果您要查看本帖隐藏内容请回复


Thx Latimer!

评分

参与人数 1CD +80 收起 理由
最终之战 + 80

查看全部评分





新西兰氛围技术死Ulcerate《7CD》2006-2020/FLAC/BD
意女声另类金属:Ravenscry《2全长+2单曲》2014-2020/FLAC/CT

0

主题

286

帖子

810

积分

职业歌手

Rank: 3Rank: 3

积分
810

社区QQ达人

QQ
发表于 2020-4-26 10:20:02 | 显示全部楼层
感谢楼主分享精彩音乐!cd包因你而更加精彩!!
您需要登录后才可以回帖 登录 | 注册

本版积分规则

快速回复 返回顶部 返回列表