最近看过此主题的会员

查看: 77|回复: 5

英暗潮合成器氛围:DEADLIFE《City of Eternal Rain》2020/FLAC/CT

[复制链接]
 成长值: 38055

1万

主题

2万

帖子

49万

积分

音乐掌门人

Rank: 20Rank: 20Rank: 20Rank: 20Rank: 20

积分
491509

名人勋章社区QQ达人分享勋章精华帖达人灌水勋章

发表于 2020-4-25 08:12:48 | 显示全部楼层 |阅读模式

注册会员,获得无损资源下载地址,享受高品质音乐。

您需要 登录 才可以下载或查看,没有帐号?注册

x
cover.jpg

DEADLIFE - City of Eternal Rain

Жанр: Darkwave, Synthwave
Страна: UK
Год издания: 2020
Издатель (лейбл): NewRetroWave
Тип рипа: tracks
Битрейт аудио: lossless
Продолжительность : 00:55:31


1 Into The Breach 01:26
2 Generation Damage 04:40
3 We Are One & The Same 04:23
4 To Unify With Clear Sight 05:05
5 Tomorrow's Children 04:51
6 Strands Unravel 06:54
7 Under A Greyscale Sky 03:48
8 Downpour 04:32
9 Young Fury, Endure 04:43
10 A Future Of Ultraviolence 04:23
11 Collapse is Imminent 05:36
12 Promises Forgotten 05:06


==============================
诚通下载:
游客,如果您要查看本帖隐藏内容请回复




美流行蓝调软摇滚:John Mayer《8CD》2001-2017/FLAC/CT/3.2G
Kelly Clarkson《I Dare You》(Multi-Language Duets) 2020/FLAC/BD

本人发布的资源,有密码的话都是:www.cdbao.net
关于链接失效的说明(度盘好友分享的说明)
https://www.cdbao.net/thread-117499-1-1.html     
紧急通告:115,快传等网盘取消了分享功能礼包码链接全部失效
https://www.cdbao.net/thread-122759-1-1.html
 成长值: 38055

1万

主题

2万

帖子

49万

积分

音乐掌门人

Rank: 20Rank: 20Rank: 20Rank: 20Rank: 20

积分
491509

名人勋章社区QQ达人分享勋章精华帖达人灌水勋章

发表于 2020-4-25 08:14:03 | 显示全部楼层
foobar2000 1.5.3 / Dynamic Range Meter 1.1.1
log date: 2020-04-24 00:28:11

--------------------------------------------------------------------------------
Analyzed: DEADLIFE / City of Eternal Rain
--------------------------------------------------------------------------------

DR         Peak         RMS     Duration Track
--------------------------------------------------------------------------------
DR9       -1.86 dB   -14.66 dB      1:26 01-Into the Breach
DR4       -0.02 dB    -5.80 dB      4:41 02-Generation Damage
DR4       -0.02 dB    -6.21 dB      4:23 03-We Are One & the Same
DR5       -0.02 dB    -6.55 dB      5:06 04-To Unify With Clear Sight
DR4        0.00 dB    -5.76 dB      4:51 05-Tomorrow's Children
DR4       -0.02 dB    -7.36 dB      6:55 06-Strands Unravel
DR4       -0.01 dB    -6.05 dB      3:49 07-Under a Greyscale Sky
DR4       -0.02 dB    -6.71 dB      4:32 08-Downpour
DR4       -0.02 dB    -6.32 dB      4:43 09-Young Fury, Endure
DR4       -0.02 dB    -6.18 dB      4:24 10-A Future of Ultraviolence
DR4       -0.02 dB    -7.30 dB      5:36 11-Collapse Is Imminent
DR7       -0.02 dB    -9.49 dB      5:06 12-Rebuild Through Compassion
--------------------------------------------------------------------------------

Number of tracks:  12
Official DR value: DR5

Samplerate:        44100 Hz
Channels:          2
Bits per sample:   16
Bitrate:           725 kbps
Codec:             FLAC
================================================================================



本人发布的资源,有密码的话都是:www.cdbao.net
关于链接失效的说明(度盘好友分享的说明)
https://www.cdbao.net/thread-117499-1-1.html     
紧急通告:115,快传等网盘取消了分享功能礼包码链接全部失效
https://www.cdbao.net/thread-122759-1-1.html
 成长值: 20445

7

主题

487

帖子

706

积分

VIP6

Rank: 9Rank: 9Rank: 9

积分
706

社区QQ达人

发表于 2020-4-25 08:43:08 | 显示全部楼层
DARKWAVE,好久没听这种类型了。。。。自从被后摇洗脑之后。。。。哈哈

0

主题

56

帖子

129

积分

新人会员,请认真回复,若恶意回复,直接封号

Rank: 1

积分
129
发表于 2020-4-25 09:59:05 | 显示全部楼层
合成器的应该都不错。

0

主题

2433

帖子

3684

积分

当红偶像

Rank: 4

积分
3684
发表于 2020-4-25 12:50:52 | 显示全部楼层
这张合成器不错

0

主题

198

帖子

569

积分

职业歌手

Rank: 3Rank: 3

积分
569

社区QQ达人

发表于 2020-4-28 15:59:57 | 显示全部楼层
试听哈这是什么类型的,感谢分享!
您需要登录后才可以回帖 登录 | 注册

本版积分规则

快速回复 返回顶部 返回列表