最近看过此主题的会员

查看: 278|回复: 16

美乡村摇滚:John Prine《The Tree Of Forgiveness》(2018)/24bit/96kHz/BD

[复制链接]

34

主题

273

帖子

4943

积分

人气天王

Rank: 5Rank: 5

积分
4943

灌水勋章

发表于 2020-3-14 13:06:14 | 显示全部楼层 |阅读模式

注册会员,获得无损资源下载地址,享受高品质音乐。

您需要 登录 才可以下载或查看,没有帐号?注册

x
本帖最后由 WoW汪 于 2020-3-25 14:20 编辑
The Tree of Forgiveness(2018).jpg
John Prine•The Tree of Forgiveness(2018)

Формат записи/Источник записи: [TR24][OF]
Наличие водяных знаков: Нет
Год издания/переиздания диска: 2018
Жанр: Folk-Rock, Country
Издатель (лейбл): Oh Boy Records
Продолжительность: 32:55
Наличие сканов в содержимом раздачи: Только обложка альбома

Треклист:
01. Knocking On Your Screen Door (2:20)
02. I Have Met My Love Today (1:51)
03. Crazy Bone (4:05)
04. Summers End (3:29)
05. Caravan Of Fools (2:28)
06. The Lonesome Friends Of Science (4:41)
07. No Ordinary Blue (2:56)
08. Boundless Love (3:35)
09. God Only Knows (3:46)
10. When I Get To Heaven (3:43)

游客,如果您要查看本帖隐藏内容请回复

评分

参与人数 1CD +80 收起 理由
最终之战 + 80

查看全部评分





美乡村摇滚:John Prine《Fair & Square》(2005)/FLAC+CUE/BD
2020年3月13日发行新单曲 2020/FLAC/BD+CT

34

主题

273

帖子

4943

积分

人气天王

Rank: 5Rank: 5

积分
4943

灌水勋章

 楼主| 发表于 2020-3-14 13:07:07 | 显示全部楼层
foobar2000 1.3.9 / Dynamic Range Meter 1.1.1
log date: 2018-04-18 14:42:35

--------------------------------------------------------------------------------
Analyzed: John Prine / The Tree Of Forgiveness
--------------------------------------------------------------------------------

DR         Peak         RMS     Duration Track
--------------------------------------------------------------------------------
DR11      -0.86 dB   -13.04 dB      2:20 01-Knocking On Your Screen Door
DR10      -0.86 dB   -12.40 dB      1:51 02-I Have Met My Love Today
DR10      -0.86 dB   -12.90 dB      4:05 03-Crazy Bone
DR11      -0.86 dB   -14.28 dB      3:29 04-Summers End
DR9       -0.86 dB   -13.77 dB      2:28 05-Caravan Of Fools
DR10      -0.86 dB   -12.13 dB      4:41 06-The Lonesome Friends Of Science
DR8       -0.86 dB   -11.31 dB      2:56 07-No Ordinary Blue
DR11      -0.86 dB   -15.18 dB      3:35 08-Boundless Love
DR9       -0.86 dB   -12.90 dB      3:46 09-God Only Knows
DR11      -0.86 dB   -15.70 dB      3:43 10-When I Get To Heaven
--------------------------------------------------------------------------------

Number of tracks:  10
Official DR value: DR10

Samplerate:        96000 Hz
Channels:          2
Bits per sample:   24
Bitrate:           2416 kbps
Codec:             FLAC
================================================================================

34

主题

273

帖子

4943

积分

人气天王

Rank: 5Rank: 5

积分
4943

灌水勋章

 楼主| 发表于 2020-3-14 13:10:19 | 显示全部楼层
这是他的全套无损CD磁链:magnet:?xt=urn:btih:44001498E889FE9B203730783D181C5BD2403EAC&tr=http%3A%2F%2Fbt.t-ru.org%2Fann%3Fmagnet&dn=(folk-rock)%20John%20Prine%20-%20Discography%20-%201971-2011%20(25%20CD)%2C%20FLAC%20(image%2B.cue)%2C%20(tracks%2B.cue)%2C%20lossless
有心的可以试试


评分

参与人数 1CD +60 收起 理由
最终之战 + 60 认真回帖,给予加分奖励

查看全部评分

0

主题

581

帖子

126

积分

新人会员,请认真回复,若恶意回复,直接封号

Rank: 1

积分
126

社区QQ达人

发表于 2020-3-14 13:33:00 | 显示全部楼层
老乡村歌手的音乐,分享出来。。

0

主题

623

帖子

327

积分

乐坛新星

Rank: 2

积分
327
发表于 2020-3-14 14:10:28 | 显示全部楼层
下来听听!多谢分享!!

0

主题

1127

帖子

428

积分

乐坛新星

Rank: 2

积分
428

社区QQ达人

发表于 2020-3-14 14:19:10 | 显示全部楼层
听听看~~~~~~~~~~~~~~~~~

2

主题

185

帖子

1450

积分

当红偶像

Rank: 4

积分
1450
发表于 2020-3-14 15:45:31 | 显示全部楼层
没听过 试听 谢谢楼主!!!

8

主题

305

帖子

1895

积分

当红偶像

Rank: 4

积分
1895
发表于 2020-3-14 19:48:06 | 显示全部楼层
老乡村歌手的音乐

0

主题

2078

帖子

3375

积分

当红偶像

Rank: 4

积分
3375
发表于 2020-3-14 19:55:17 | 显示全部楼层
这张也是要的啊

2

主题

627

帖子

1358

积分

当红偶像

Rank: 4

积分
1358
发表于 2020-3-15 11:00:47 | 显示全部楼层
谢谢分享,下来听听。

24

主题

560

帖子

1万

积分

人气天王

Rank: 5Rank: 5

积分
10518
发表于 2020-3-15 11:42:21 | 显示全部楼层

老乡村歌手的音乐 谢谢

0

主题

25

帖子

77

积分

新人会员,请认真回复,若恶意回复,直接封号

Rank: 1

积分
77
发表于 2020-3-15 18:19:28 | 显示全部楼层
非常感谢分享谢谢
integral

2

主题

627

帖子

1520

积分

当红偶像

Rank: 4

积分
1520
发表于 2020-3-15 22:34:17 | 显示全部楼层
还真的没听过啊,谢谢分享!

0

主题

30

帖子

87

积分

新人会员,请认真回复,若恶意回复,直接封号

Rank: 1

积分
87
发表于 2020-3-16 13:31:03 | 显示全部楼层
感谢分享!!!!

1

主题

285

帖子

230

积分

乐坛新星

Rank: 2

积分
230
发表于 2020-3-17 10:54:14 | 显示全部楼层
这么好的专辑,居然之前没有听过
您需要登录后才可以回帖 登录 | 注册

本版积分规则

快速回复 返回顶部 返回列表