最近看过此主题的会员

查看: 187|回复: 13

黑胶收藏:John Prine 《John Prine》(2015remastered)/24bit/192kHz/BD

[复制链接]

33

主题

259

帖子

4921

积分

人气天王

Rank: 5Rank: 5

积分
4921

灌水勋章

发表于 2020-3-13 21:38:51 | 显示全部楼层 |阅读模式

注册会员,获得无损资源下载地址,享受高品质音乐。

您需要 登录 才可以下载或查看,没有帐号?注册

x
本帖最后由 WoW汪 于 2020-3-30 15:30 编辑

0012557646_10.jpg
John Prine

简介:至今为止唯一一位在美国国会图书馆开过演唱会的歌手,诺奖得主 Bob Dylan 最喜欢的六个唱作人之一,乡村天王 Johnny Cash 最喜欢的四个唱作人之一,Pink Floyd 灵魂人物 Roger Waters 最喜欢的一个唱作人之一。个人估计格莱美终身成就奖应该只是时间问题…
Bob Dylan: John Prine is pure Proustian existentialism... Midwestern mind trips to the nth degree.
Tom Paxton: Tell you what, John, I'll go on the road and sing songs with you if you write all the songs!
John Prine 很 typical 的一个风格用一个词形容就是goofy,就是那种狡黠的大智若愚的感觉,但他的歌曲当然不只有goofy,他可以只用最简单的三和弦G、C、D(偶尔也会加上Am、A7和离调和弦F)写出一百种不同风格不同主题的歌。
Angel From Montgomery 的寂寞,Speed of the Sound of Loneliness 的孤独,Spanish Pipedream 的狡黠,The Sins of Memphisto 的幽默,Paradise 和 Souvenirs 的怀旧,How Lucky 的乐观旷达,Clocks and Spoons 的浅显诗意,6 O'Clock News 和 Lake Marie 的eerie,It's a Big Old Goofy World 的goofy……你在 Everything Is Cool 里被抛弃,在 Saddle in the Rain 里被背叛,在 I Guess They Oughta Name a Drink After You 中喝到烂醉,却又在 Sour Grapes 里找到慰藉,在 All the Best 里付之一哂。
——转载来自知乎,原作者:Seahorse

front.jpg

John Prine (2015remastered)

这里有Boweyy坛友2020年的DSD重录版,在这里我再次感谢他:https://www.cdbao.net/thread-1458423-1-1.html


这是2015年版的:质量有问题,故关闭


如果硬盘不足,这里还有:

游客,如果您要查看本帖隐藏内容请回复









美国乡村汉子Trace Adkins《Love Will...》(2013)/FLAC+CUE/BD
美乡村摇滚:John Prine《Fair & Square》(2005)/FLAC+CUE/BD

33

主题

259

帖子

4921

积分

人气天王

Rank: 5Rank: 5

积分
4921

灌水勋章

 楼主| 发表于 2020-3-13 21:46:16 | 显示全部楼层
foobar2000 1.3.9 / Dynamic Range Meter 1.1.1
log date: 2017-10-28 19:15:26

--------------------------------------------------------------------------------
Analyzed: John Prine / John Prine
--------------------------------------------------------------------------------

DR         Peak         RMS     Duration Track
--------------------------------------------------------------------------------
DR11      -0.10 dB   -14.02 dB      3:13 01-Illegal Smile
DR12      -0.10 dB   -13.69 dB      2:41 02-Spanish Pipedream
DR11      -0.10 dB   -14.68 dB      4:32 03-Hello In There
DR11      -0.78 dB   -15.43 dB      4:17 04-Sam Stone
DR12      -1.21 dB   -16.69 dB      3:14 05-Paradise
DR10      -0.10 dB   -11.88 dB      3:38 06-Pretty Good
DR12      -0.10 dB   -14.39 dB      2:53 07-Your Flag Decal Won't Get You Into Heaven Anymore
DR9       -0.10 dB   -12.53 dB      3:42 08-Far From Me
DR12      -0.10 dB   -13.16 dB      3:47 09-Angel From Montgomery
DR10      -0.10 dB   -12.23 dB      2:53 10-Quiet Man
DR12      -0.10 dB   -15.10 dB      4:30 11-Donald And Lydia
DR11      -0.52 dB   -14.06 dB      2:52 12-Six O'Clock News
DR10      -0.10 dB   -12.23 dB      2:33 13-Flashback Blues
--------------------------------------------------------------------------------

Number of tracks:  13
Official DR value: DR11

Samplerate:        192000 Hz
Channels:          2
Bits per sample:   24
Bitrate:           5754 kbps
Codec:             FLAC
================================================================================

0

主题

411

帖子

593

积分

职业歌手

Rank: 3Rank: 3

积分
593
发表于 2020-3-21 12:32:53 | 显示全部楼层
浸入人心。谢谢分享!

24

主题

559

帖子

1万

积分

人气天王

Rank: 5Rank: 5

积分
10196
发表于 2020-3-17 23:12:57 | 显示全部楼层

感谢楼主热心分享 谢谢了

1

主题

285

帖子

226

积分

乐坛新星

Rank: 2

积分
226
发表于 2020-3-17 10:50:39 | 显示全部楼层
t挺好听,一下子就抓住了耳朵

0

主题

257

帖子

572

积分

职业歌手

Rank: 3Rank: 3

积分
572
发表于 2020-3-16 09:03:12 | 显示全部楼层
喜欢黑胶的声音,专辑很棒

0

主题

108

帖子

212

积分

乐坛新星

Rank: 2

积分
212
发表于 2020-3-15 13:55:45 | 显示全部楼层
感谢楼主热心分享

0

主题

2077

帖子

3370

积分

当红偶像

Rank: 4

积分
3370
发表于 2020-3-14 19:54:59 | 显示全部楼层
nt必须下来听一下的

2

主题

627

帖子

1339

积分

当红偶像

Rank: 4

积分
1339
发表于 2020-3-14 17:18:25 | 显示全部楼层
看起来他的歌曲一定挺棒的。

0

主题

569

帖子

111

积分

新人会员,请认真回复,若恶意回复,直接封号

Rank: 1

积分
111

社区QQ达人

发表于 2020-3-14 13:43:30 | 显示全部楼层
真正的乡村歌手,从青春到年老,一直没变。

0

主题

406

帖子

191

积分

乐坛新星

Rank: 2

积分
191
发表于 2020-3-14 12:27:51 | 显示全部楼层
下来听听!多谢分享!!

1

主题

124

帖子

749

积分

职业歌手

Rank: 3Rank: 3

积分
749
发表于 2020-3-14 10:38:38 | 显示全部楼层
很牛逼的歌手,感谢分享!

0

主题

185

帖子

278

积分

乐坛新星

Rank: 2

积分
278
发表于 2020-3-14 10:20:26 | 显示全部楼层
下来听听,感谢楼主分享

0

主题

623

帖子

327

积分

乐坛新星

Rank: 2

积分
327
发表于 2020-3-14 08:18:17 | 显示全部楼层
感谢楼主热心分享

您需要登录后才可以回帖 登录 | 注册

本版积分规则

快速回复 返回顶部 返回列表