最近看过此主题的会员

查看: 332|回复: 2

[求资源] 求:韩版城市猎人CITY HUNTER OST SPECIAL EDITION WAV

[复制链接]

4

主题

51

帖子

977

积分

职业歌手

Rank: 3Rank: 3

积分
977
发表于 2020-1-18 17:05:57 | 显示全部楼层 |阅读模式
100CD
专辑名称: 城市猎人CITY HUNTER OST SPECIAL EDITION
演唱歌手:韩国电视原声碟
出品商:Sony Music (KR)
SID码: IFPI  LR21
条 形 码: JRC-78484   HGT-1036
                 JRC-78485  HGT-1037
发行时间:2012年2月23号
专辑语种:韩语专辑2CD
专辑版本: 韩版
专辑格式:WAV
专辑图片:
QQ截图20200118170357.png
Exact Audio Copy 检测结果CD1:

Exact Audio Copy V1.0 beta 3 from 29. August 2011

EAC 抓取日志文件从12. 十二月 2012, 21:35

未知艺术家 / 未知标题

使用驱动器  :hp      DVD RW AD-7251H5   Adapter: 0  ID: 1

读取模式      : 可靠Secure
使用精确流     : 是
清空音频缓存    : 是
使用 C2 指示器 : 否

读取偏移校正:               : 48
读取 Lead-In 和 Lead-Out : 否
用静音填充抓取中丢失偏移的采样       : 是
去除首尾静音块               : 否
在CRC 计算中使用了空样本       : 是
已用接口                  : Win NT 及 2000 本地 Win32 接口

所用输出模式: : 内部 WAV 函数
样本格式    : 44.100 Hz; 16 Bit; 立体声


已抓取 CD 的 TOC

     音轨 |    起始    |    长度    |  起始扇区  |  结束扇区  
    --------------------------------------------
      1 |  0:00.00 |  4:36.56 |      0 |  20755
      2 |  4:36.56 |  3:43.68 |  20756 |  37548
      3 |  8:20.49 |  4:07.73 |  37549 |  56146
      4 | 12:28.47 |  3:35.04 |  56147 |  72275
      5 | 16:03.51 |  3:40.58 |  72276 |  88833
      6 | 19:44.34 |  4:32.24 |  88834 | 109257
      7 | 24:16.58 |  3:25.16 | 109258 | 124648
      8 | 27:41.74 |  3:23.22 | 124649 | 139895
      9 | 31:05.21 |  1:43.48 | 139896 | 147668
     10 | 32:48.69 |  1:42.39 | 147669 | 155357
     11 | 34:31.33 |  1:43.72 | 155358 | 163154


范围状态及错误

已选择范围

     文件名 C:\Users\xx\Desktop\城市猎人CD1.wav

     峰值电平 99.9 %
     抓取速度 2.8 X
     范围质量 100.0 %
     复制 CRC A7BC52DE
     复制成功

没有错误发生

状态报告结尾

Exact Audio Copy 检测结果CD2:

Exact Audio Copy V1.0 beta 3 from 29. August 2011

EAC 抓取日志文件从12. 十二月 2012, 20:04

未知艺术家 / 未知标题

使用驱动器  :hp      DVD RW AD-7251H5   Adapter: 0  ID: 1

读取模式      : 可靠Secure
使用精确流     : 是
清空音频缓存    : 是
使用 C2 指示器 : 否

读取偏移校正:               : 48
读取 Lead-In 和 Lead-Out : 否
用静音填充抓取中丢失偏移的采样       : 是
去除首尾静音块               : 否
在CRC 计算中使用了空样本       : 是
已用接口                  : Win NT 及 2000 本地 Win32 接口

所用输出模式: : 内部 WAV 函数
样本格式    : 44.100 Hz; 16 Bit; 立体声


已抓取 CD 的 TOC

     音轨 |    起始    |    长度    |  起始扇区  |  结束扇区  
    --------------------------------------------
      1 |  0:00.00 |  3:49.65 |      0 |  17239
      2 |  3:49.65 |  4:14.36 |  17240 |  36325
      3 |  8:04.26 |  4:10.44 |  36326 |  55119
      4 | 12:14.70 |  2:57.31 |  55120 |  68425
      5 | 15:12.26 |  3:49.23 |  68426 |  85623
      6 | 19:01.49 |  3:42.18 |  85624 | 102291
      7 | 22:43.67 |  3:49.65 | 102292 | 119531
      8 | 26:33.57 |  4:14.36 | 119532 | 138617
      9 | 30:48.18 |  1:52.59 | 138618 | 147076
     10 | 32:41.02 |  2:10.48 | 147077 | 156874
     11 | 34:51.50 |  2:10.63 | 156875 | 166687
     12 | 37:02.38 |  2:04.58 | 166688 | 176045


范围状态及错误

已选择范围

     文件名 C:\Users\xx\Desktop\城市猎人CD2.wav

     峰值电平 99.9 %
     抓取速度 5.9 X
     范围质量 100.0 %
     复制 CRC 35FABFA2
     复制成功

没有错误发生

状态报告结尾

专辑曲目:
CD1:
1.사랑 爱情- 임재범 任宰范
2.Suddenly - 김보경 金宝京
3.I Love You, I Want You, I Need You – 애플 망고 (Apple Mango)苹果芒果乐团
4.그대와 난 你和我- 레인보우 彩虹乐团 Rainbow
5.큐피트 丘比特 Cupid - 걸스데이 GIRL'S DAY
6.너에게 만은 남자이고 싶다 坏人你来当 - Hunter
7.사랑이 끝났다  爱情结束了- 애플 망고  (Apple Mango)苹果芒果乐团
8.Memories Of Love 回忆中的爱情/吉他乐( Acoustic Guitar Ver.)
9.City Hunter( Instrumental )
10.Sad Run( Instrumental )
11.The Fire Of Love( Instrumental )

CD2:
1.I Love U, I Want U, I Need U ( Sweet Acoustic Ver) - 구하라 具荷拉
2.그대만 봐요 只看着你 - 박규리 朴奎利
3.So Goodbye - 종현 钟铉
4.멈출 수 없는...  停不下來的... – 손한별 孙寒星
5.It's Alright - 양화진밴드杨花镇乐队(试听)
6.Lonely Day - J-심포니 J-SYMPHONY
7.I Love U, I Want U, I Need U ( Sweet Acoustic Ver)( Instrumental )
8.그대만 봐요 只看着你  ( Instrumental )
9.Eagle Eye( Instrumental )
10.Endless Crying(Cyber Voice ver.)( Instrumental )
11.Fire Flower( Instrumental )
12.Hot Spade( Instrumental )

应该是整轨的把 多谢了





求《中国大摇滚》资源, WAV, FLAC等无损资源皆可
Pet Shop Boys)1986-2010/APE/百度/39.14GB

4

主题

1761

帖子

595

积分

职业歌手

Rank: 3Rank: 3

积分
595
发表于 2020-1-18 18:38:08 | 显示全部楼层
此帖仅作者可见

0

主题

1970

帖子

1199

积分

职业歌手

Rank: 3Rank: 3

积分
1199
发表于 2020-5-8 01:37:51 | 显示全部楼层
此帖仅作者可见
您需要登录后才可以回帖 登录 | 注册

本版积分规则

快速回复 返回顶部 返回列表