最近看过此主题的会员

查看: 197|回复: 4

[欧美] jarpomarx原抓:Opeth《In Cauda Venenum》2CD_豪华版/2019/FLAC/BD

[复制链接]
 成长值: 35385

1万

主题

2万

帖子

77万

积分

音乐掌门人

Rank: 20Rank: 20Rank: 20Rank: 20Rank: 20

积分
775458

名人勋章社区QQ达人分享勋章精华帖达人灌水勋章

发表于 2019-11-15 18:07:45 | 显示全部楼层 |阅读模式

注册会员,获得无损资源下载地址,享受高品质音乐。

您需要 登录 才可以下载或查看,没有帐号?注册

x
folder.jpg

CD1: Swedish
CD1-1 Livets Trädgård
CD1-2 Svekets Prins
CD1-3 Hjärtat Vet Vad Handen Gör
CD1-4 De Närmast Sörjande
CD1-5 Minnets Yta
CD1-6 Charlatan
CD1-7 Ingen Sanning Är Allas
CD1-8 Banemannen
CD1-9 Kontinuerlig Drift
CD1-10 Allting Tar Slut

CD2: English
CD2-1 Garden Of Earthly Delights
CD2-2 Dignity
CD2-3 Heart In Hand
CD2-4 Next Of Kin
CD2-5 Lovelorn Crime
CD2-6 Charlatan
CD2-7 Universal Truth
CD2-8 The Garroter
CD2-9 Continuum
CD2-10 All Things Will Pass



==============================
Exact Audio Copy V1.3 from 2. September 2016

EAC extraction logfile from 7. October 2019, 17:49

Opeth / In Cauda Venenum - Deluxe Ed. CD1 Swedish Version

Used drive  : ASUS    DRW-24D5MT   Adapter: 1  ID: 0

Read mode               : Secure
Utilize accurate stream : Yes
Defeat audio cache      : Yes
Make use of C2 pointers : No

Read offset correction                      : 6
Overread into Lead-In and Lead-Out          : No
Fill up missing offset samples with silence : Yes
Delete leading and trailing silent blocks   : No
Null samples used in CRC calculations       : Yes
Used interface                              : Native Win32 interface for Win NT & 2000

Used output format              : User Defined Encoder
Selected bitrate                : 768 kBit/s
Quality                         : High
Add ID3 tag                     : No
Command line compressor         : C:\Program Files (x86)\Exact Audio Copy\FLAC\FLAC.EXE
Additional command line options : -6 -V -T "ARTIST=%artist%" -T "TITLE=%title%" -T "ALBUM=%albumtitle%" -T "DATE=%year%" -T "TRACKNUMBER=%tracknr%" -T "GENRE=%genre%" -T "COMMENT=%comment%" -T "BAND=%albuminterpret%" -T "ALBUMARTIST=%albuminterpret%" -T "COMPOSER=%composer%" %haslyrics%--tag-from-file=LYRICS="%lyricsfile%"%haslyrics% -T "DISCNUMBER=%cdnumber%" -T "TOTALDISCS=%totalcds%" -T "TOTALTRACKS=%numtracks%" %hascover%--picture="%coverfile%"%hascover% %source% -o %dest%


TOC of the extracted CD

     Track |   Start  |  Length  | Start sector | End sector
    ---------------------------------------------------------
        1  |  0:00.00 |  3:28.59 |         0    |    15658   
        2  |  3:28.59 |  6:36.43 |     15659    |    45401   
        3  | 10:05.27 |  8:29.50 |     45402    |    83626   
        4  | 18:35.02 |  7:10.30 |     83627    |   115906   
        5  | 25:45.32 |  6:34.01 |    115907    |   145457   
        6  | 32:19.33 |  5:29.16 |    145458    |   170148   
        7  | 37:48.49 |  7:21.67 |    170149    |   203290   
        8  | 45:10.41 |  6:43.71 |    203291    |   233586   
        9  | 51:54.37 |  7:23.27 |    233587    |   266838   
       10  | 59:17.64 |  8:31.24 |    266839    |   305187   


Range status and errors

Selected range

     Filename E:\Música\EAC\Opeth\Opeth - In Cauda Venenum - Deluxe Ed. CD1 Swedish Version.wav

     Peak level 100.0 %
     Extraction speed 1.9 X
     Range quality 100.0 %
     Test CRC 746D0038
     Copy CRC 746D0038
     Copy OK

No errors occurred


AccurateRip summary

Track  1  accurately ripped (confidence 16)  [63B7620D]  (AR v2)
Track  2  accurately ripped (confidence 16)  [A7A1CC3B]  (AR v2)
Track  3  accurately ripped (confidence 16)  [D539D9A3]  (AR v2)
Track  4  accurately ripped (confidence 16)  [1C2A40FA]  (AR v2)
Track  5  accurately ripped (confidence 16)  [794E892F]  (AR v2)
Track  6  accurately ripped (confidence 16)  [5003F83E]  (AR v2)
Track  7  accurately ripped (confidence 16)  [4863DF64]  (AR v2)
Track  8  accurately ripped (confidence 16)  [790BF6FE]  (AR v2)
Track  9  accurately ripped (confidence 16)  [DA75F49E]  (AR v2)
Track 10  accurately ripped (confidence 16)  [302C8E06]  (AR v2)

All tracks accurately ripped

End of status report

---- CUETools DB Plugin V2.1.6

[CTDB TOCID: Vck.Eb85Z.LoCpk9GDUO.YqUqZk-] found
Submit result: Vck.Eb85Z.LoCpk9GDUO.YqUqZk- has been confirmed
Track | CTDB Status
  1   | (238/239) Accurately ripped
  2   | (238/239) Accurately ripped
  3   | (238/239) Accurately ripped
  4   | (238/239) Accurately ripped
  5   | (238/239) Accurately ripped
  6   | (238/239) Accurately ripped
  7   | (238/239) Accurately ripped
  8   | (238/239) Accurately ripped
  9   | (238/239) Accurately ripped
10   | (236/239) Accurately ripped


==== Log checksum 545F45652D9A10C1CE45A7ADCBB46C76A3227F19C1FC5DC57032982A160DA778 ====

Exact Audio Copy V1.3 from 2. September 2016

EAC extraction logfile from 7. October 2019, 19:09

Opeth / In Cauda Venenum - Deluxe Ed. CD2 English Version

Used drive  : ASUS    DRW-24D5MT   Adapter: 1  ID: 0

Read mode               : Secure
Utilize accurate stream : Yes
Defeat audio cache      : Yes
Make use of C2 pointers : No

Read offset correction                      : 6
Overread into Lead-In and Lead-Out          : No
Fill up missing offset samples with silence : Yes
Delete leading and trailing silent blocks   : No
Null samples used in CRC calculations       : Yes
Used interface                              : Native Win32 interface for Win NT & 2000

Used output format              : User Defined Encoder
Selected bitrate                : 768 kBit/s
Quality                         : High
Add ID3 tag                     : No
Command line compressor         : C:\Program Files (x86)\Exact Audio Copy\FLAC\FLAC.EXE
Additional command line options : -6 -V -T "ARTIST=%artist%" -T "TITLE=%title%" -T "ALBUM=%albumtitle%" -T "DATE=%year%" -T "TRACKNUMBER=%tracknr%" -T "GENRE=%genre%" -T "COMMENT=%comment%" -T "BAND=%albuminterpret%" -T "ALBUMARTIST=%albuminterpret%" -T "COMPOSER=%composer%" %haslyrics%--tag-from-file=LYRICS="%lyricsfile%"%haslyrics% -T "DISCNUMBER=%cdnumber%" -T "TOTALDISCS=%totalcds%" -T "TOTALTRACKS=%numtracks%" %hascover%--picture="%coverfile%"%hascover% %source% -o %dest%


TOC of the extracted CD

     Track |   Start  |  Length  | Start sector | End sector
    ---------------------------------------------------------
        1  |  0:00.00 |  3:28.59 |         0    |    15658   
        2  |  3:28.59 |  6:36.04 |     15659    |    45362   
        3  | 10:04.63 |  8:30.00 |     45363    |    83612   
        4  | 18:34.63 |  7:10.00 |     83613    |   115862   
        5  | 25:44.63 |  6:34.00 |    115863    |   145412   
        6  | 32:18.63 |  5:29.01 |    145413    |   170088   
        7  | 37:47.64 |  7:30.58 |    170089    |   203896   
        8  | 45:18.47 |  6:45.09 |    203897    |   234280   
        9  | 52:03.56 |  7:22.70 |    234281    |   267500   
       10  | 59:26.51 |  8:33.31 |    267501    |   306006   


Range status and errors

Selected range

     Filename E:\Música\EAC\Opeth\Opeth - In Cauda Venenum - Deluxe Ed. CD2 English Version.wav

     Peak level 100.0 %
     Extraction speed 7.4 X
     Range quality 100.0 %
     Test CRC 4A9E7E59
     Copy CRC 4A9E7E59
     Copy OK

No errors occurred


AccurateRip summary

Track  1  accurately ripped (confidence 12)  [1D59976A]  (AR v2)
Track  2  accurately ripped (confidence 12)  [82EF1248]  (AR v2)
Track  3  accurately ripped (confidence 13)  [67604793]  (AR v2)
Track  4  accurately ripped (confidence 13)  [E9CEA5B9]  (AR v2)
Track  5  accurately ripped (confidence 13)  [0748D064]  (AR v2)
Track  6  accurately ripped (confidence 13)  [B76DC63F]  (AR v2)
Track  7  accurately ripped (confidence 13)  [413688F4]  (AR v2)
Track  8  accurately ripped (confidence 13)  [613CB75D]  (AR v2)
Track  9  accurately ripped (confidence 13)  [F4E7D7D5]  (AR v2)
Track 10  accurately ripped (confidence 12)  [7EA1B6F0]  (AR v2)

All tracks accurately ripped

End of status report

---- CUETools DB Plugin V2.1.6

[CTDB TOCID: BRwqDoAFU0b2xDQ5NyfDqcED8uU-] found
Submit result: BRwqDoAFU0b2xDQ5NyfDqcED8uU- has been confirmed
Track | CTDB Status
  1   | (271/272) Accurately ripped
  2   | (272/272) Accurately ripped
  3   | (271/272) Accurately ripped
  4   | (272/272) Accurately ripped
  5   | (272/272) Accurately ripped
  6   | (272/272) Accurately ripped
  7   | (272/272) Accurately ripped
  8   | (272/272) Accurately ripped
  9   | (272/272) Accurately ripped
10   | (263/272) Accurately ripped


==== Log checksum 9E74926518E52E292F04328B906CE5112AF3E730DA94A4D9F5633FCA436A8ED3 ====




原抓:Dragonforce《Ultra Beatdown》Ultra Edition/Flac/BD
飞鱼原抓:群星《20 30 40 爱得精采》2004 整轨WAV+LOG/BD

本人发布的资源,有密码的话都是:www.cdbao.net
关于链接失效的说明(度盘好友分享的说明)
https://www.cdbao.net/thread-117499-1-1.html     
紧急通告:115,快传等网盘取消了分享功能礼包码链接全部失效
https://www.cdbao.net/thread-122759-1-1.html
 成长值: 35385

1万

主题

2万

帖子

77万

积分

音乐掌门人

Rank: 20Rank: 20Rank: 20Rank: 20Rank: 20

积分
775458

名人勋章社区QQ达人分享勋章精华帖达人灌水勋章

发表于 2019-11-15 18:10:41 | 显示全部楼层
Caja_Tapa.jpg


Caja_Fondo.jpg

Digipak_Exterior.jpg

Digipak_interior.jpg

Funda_BD_A.jpg

Funda_BD_B.jpg

Funda_Exterior_Vinilo_EnglishVer.jpg

Funda_Exterior_Vinilo_SwedishVer.jpg



本人发布的资源,有密码的话都是:www.cdbao.net
关于链接失效的说明(度盘好友分享的说明)
https://www.cdbao.net/thread-117499-1-1.html     
紧急通告:115,快传等网盘取消了分享功能礼包码链接全部失效
https://www.cdbao.net/thread-122759-1-1.html
 成长值: 35385

1万

主题

2万

帖子

77万

积分

音乐掌门人

Rank: 20Rank: 20Rank: 20Rank: 20Rank: 20

积分
775458

名人勋章社区QQ达人分享勋章精华帖达人灌水勋章

发表于 2019-11-15 18:11:35 | 显示全部楼层
Funda_Interior_Vinilos_BothVer.jpg


Letras_00BothVer.jpg

Letras_EngVer_01.jpg

Letras_EngVer_02.jpg

Letras_EngVer_03.jpg

Letras_SweVer_01.jpg

Letras_SweVer_02.jpg

Letras_SweVer_03.jpg

Libreto_00Portada.jpg

LIbreto_01.jpg

Libreto_02.jpg



本人发布的资源,有密码的话都是:www.cdbao.net
关于链接失效的说明(度盘好友分享的说明)
https://www.cdbao.net/thread-117499-1-1.html     
紧急通告:115,快传等网盘取消了分享功能礼包码链接全部失效
https://www.cdbao.net/thread-122759-1-1.html
 成长值: 35385

1万

主题

2万

帖子

77万

积分

音乐掌门人

Rank: 20Rank: 20Rank: 20Rank: 20Rank: 20

积分
775458

名人勋章社区QQ达人分享勋章精华帖达人灌水勋章

发表于 2019-11-15 18:12:41 | 显示全部楼层
Libreto_03.jpg

Libreto_04.jpg

Libreto_05.jpg

Libreto_06.jpg

Libreto_07.jpg

Poster.jpg

Vinilo_Eng1A.jpg

Vinilo_Eng1B.jpg

Vinilo_Eng2C.jpg

Vinilo_Eng2D.jpg

Vinilo_Swe1A.jpg

Vinilo_Swe1B.jpg

Vinilo_Swe2C.jpg

Vinilo_Swe2D.jpg



本人发布的资源,有密码的话都是:www.cdbao.net
关于链接失效的说明(度盘好友分享的说明)
https://www.cdbao.net/thread-117499-1-1.html     
紧急通告:115,快传等网盘取消了分享功能礼包码链接全部失效
https://www.cdbao.net/thread-122759-1-1.html
 成长值: 35385

1万

主题

2万

帖子

77万

积分

音乐掌门人

Rank: 20Rank: 20Rank: 20Rank: 20Rank: 20

积分
775458

名人勋章社区QQ达人分享勋章精华帖达人灌水勋章

发表于 2019-11-15 18:13:57 | 显示全部楼层
BD.jpg


CD1.jpg

CD2.jpg


百度下载(阿战音乐仓库)

游客,如果您要查看本帖隐藏内容请回复



本人发布的资源,有密码的话都是:www.cdbao.net
关于链接失效的说明(度盘好友分享的说明)
https://www.cdbao.net/thread-117499-1-1.html     
紧急通告:115,快传等网盘取消了分享功能礼包码链接全部失效
https://www.cdbao.net/thread-122759-1-1.html
您需要登录后才可以回帖 登录 | 注册

本版积分规则

快速回复 返回顶部 返回列表