最近看过此主题的会员

查看: 158|回复: 1

[华语] 原抓:品冠《无法理解的大人》2015/WAV整轨/百度

[复制链接]

5

主题

156

帖子

1112

积分

职业歌手

Rank: 3Rank: 3

积分
1112
发表于 2019-11-6 16:05:23 | 显示全部楼层 |阅读模式

注册会员,获得无损资源下载地址,享受高品质音乐。

您需要 登录 才可以下载或查看,没有帐号?注册

x
品冠1.jpg
品冠专辑介绍:
年少渴望长大成人 生命追求十全十美
一转眼却成为自己 无法理解的大人
集结14位跨世代华语乐坛创作菁英:
品冠/林夕/方文山/朱敬然/彭学斌/十方/张简君伟/黄婷/鸦片丹/陈韦伶/木村充利/李思源/陈颖见/王于升 倾力打造
品冠/马毓芬/朱敬然/陈建良/罗宇轩/王于升
联手制作

亚洲首席情歌暖男 品冠2015全新专辑〔无法理解的大人〕
收录11首关于青春、梦想、爱情、遗憾和回忆的心情歌
首波推荐「年少时代」
致---记忆深处那个单纯勇敢追梦的自己
继加盟种子音乐大受好评的首张专辑〔随时都在〕后,睽违一年三个月的时间,亚洲情歌暖男品冠将在9月19日推出全新专辑〔无法理解的大人〕。专辑中,除了收录之前陆续曝光的单曲,包括演唱会同名主题曲「现在,你在哪里?」、目前正在热播的偶像剧「失去你的那一天」片尾曲「我一个人记得就好」、插曲「最幸福的时间」,和「孤独的美食家」主题曲「一个人不一定就不快乐」,加上全新未曝光的七首歌曲,全专辑份量十足的十一首歌,将带给歌迷的将是除了品冠招牌的温暖动人情歌外,更多深刻的人生习题。
品冠2015全新国语专辑〔无法理解的大人〕是一个时间轴的概念,从自身现在的人生阶段回首过去,也许从很小时候、年少学生时代、刚出社会时、甚至谈恋爱、结婚生子的不同历程与阶段的心情转折,关于梦想、关于爱情、关于回忆,也关于遗憾。品冠用真诚的音乐,温暖的嗓音,带他自己、也带着听歌的人,走一趟成长之路。
这次专辑首波主打歌「年少时代」正说着这样的故事。钢琴的单音前奏像是回忆的清音,温暖带怀旧的旋律,配上画面感十足的歌词,在「弹珠、秘密基地、漫画、双截棍」里,回到一个单纯的年代,在那个世界里,孩子们奔跑、欢笑、挥汗,人生所有的困难不过是作业写不完,早上不知怎么去上课...然后慢慢长大了,「一次一次的盼望着/一点一点的失望了/一寸一寸看着年少时代的天空缩小了」,然后是无数的自问,音乐也脱离安静、益发澎湃,「一万倍世故聪明/换不回一分快乐」,彷佛翻搅着没有答案的天问。
品冠唱着这首歌时,自己也像是从年少时代一路到现在,再次走了一回。站在现在的地方,看清楚自己的样子,然后找回一些憧憬。他想到许多曾经相遇、相知的人,后来却不见了。在回忆的同时,或许有的是更多的感念,是许多人的善意与温暖,让我们成为现在的自己。
这首「年少时代」,是品冠给这纷扰的世界里,一份坚定而温暖的力量。而这次专辑名称〔无法理解的大人〕正是取自首波主打「年少时代」里的其中一句歌词,贯穿了整张专辑的概念。

品冠2.jpg

1 年少时代 Boyhood
2 有关你的地方 Somewhere With You
3 越爱越配 Both Sides Love
4 我应该是什么模样 The Path Of Growth
5 现在就出发 Let's Go
6 最后才学会 Finally Learnt
7 现在, 你在哪里? 品冠2015《现在, 你在哪里?》世界巡回演唱会主题曲
8 我一个人记得就好 I Myself Remember
9 他对我很好 See You Again
10 最幸福的时间 The Most Precious Moment
11 一个人不一定就不快乐 美食剧《孤独的美食家 第一季: 台湾篇》片尾曲 / Could Be Happy Alone

游客,如果您要查看本帖隐藏内容请回复

===========================================================

  1. [quote]抓轨日志


  2. Exact Audio Copy V1.1 from 23. June 2015

  3. EAC 抓取日志文件从6. 十一月 2019, 14:52

  4. 品冠 / 无法理解的大人

  5. 使用驱动器  :Dell    DVD+/-RW DW316   Adapter: 1  ID: 2

  6. 读取模式      : 可靠Secure
  7. 使用精确流     : 是
  8. 清空音频缓存    : 是
  9. 使用 C2 指示器 : 否

  10. 读取偏移校正:               : 0
  11. 读取 Lead-In 和 Lead-Out : 否
  12. 用静音填充抓取中丢失偏移的采样       : 是
  13. 去除首尾静音块               : 否
  14. 在CRC 计算中使用了空样本       : 是
  15. 已用接口                  : Win NT 及 2000 本地 Win32 接口

  16. 所用输出模式: : 内部 WAV 函数
  17. 样本格式    : 44.100 Hz; 16 Bit; 立体声


  18. 已抓取 CD 的 TOC

  19.      音轨 |    起始    |    长度    |  起始扇区  |  结束扇区  
  20.     --------------------------------------------
  21.       1 |  0:00.00 |  4:25.74 |      0 |  19948
  22.       2 |  4:25.74 |  3:49.06 |  19949 |  37129
  23.       3 |  8:15.05 |  4:22.64 |  37130 |  56843
  24.       4 | 12:37.69 |  4:13.03 |  56844 |  75821
  25.       5 | 16:50.72 |  3:58.00 |  75822 |  93671
  26.       6 | 20:48.72 |  4:26.00 |  93672 | 113621
  27.       7 | 25:14.72 |  3:47.03 | 113622 | 130649
  28.       8 | 29:02.00 |  3:55.45 | 130650 | 148319
  29.       9 | 32:57.45 |  4:37.74 | 148320 | 169168
  30.      10 | 37:35.44 |  4:06.05 | 169169 | 187623
  31.      11 | 41:41.49 |  3:28.01 | 187624 | 203224


  32. 范围状态及错误

  33. 已选择范围

  34.      文件名 F:\--------自己买的碟片\品冠-无法理解的大人品冠-2015大人\品冠 - 无法理解的大人.wav

  35.      峰值电平 100.0 %
  36.      抓取速度 1.9 X
  37.      范围质量 100.0 %
  38.      复制 CRC 0D697D46
  39.      复制成功

  40. 没有错误发生

  41. 状态报告结尾

  42. ---- CUETools DB Plugin V2.1.6

  43. [CTDB TOCID: H7d9DBS31WaI0_cCaNnYyd2qYJ0-] found
  44. Submit result: H7d9DBS31WaI0_cCaNnYyd2qYJ0- has been confirmed
  45. Track | CTDB Status
  46.   1   | (21/21) Accurately ripped
  47.   2   | (21/21) Accurately ripped
  48.   3   | (21/21) Accurately ripped
  49.   4   | (21/21) Accurately ripped
  50.   5   | (21/21) Accurately ripped
  51.   6   | (21/21) Accurately ripped
  52.   7   | (21/21) Accurately ripped
  53.   8   | (21/21) Accurately ripped
  54.   9   | (21/21) Accurately ripped
  55. 10   | (21/21) Accurately ripped
  56. 11   | (21/21) Accurately ripped
  57. [/quote]
复制代码



目录.jpg
目录.jpg

评分

参与人数 1CD +240 收起 理由
最终之战 + 240 感谢分享资源,CD包因你而精彩.

查看全部评分





原抓:lron Maiden《A Real Dead One》1993/WAV/BD
原抓:《Man of Steel [Deluxe Edition]》/AIFF无损/BD
 成长值: 35130

1万

主题

2万

帖子

77万

积分

音乐掌门人

Rank: 20Rank: 20Rank: 20Rank: 20Rank: 20

积分
774213

名人勋章社区QQ达人分享勋章精华帖达人灌水勋章

发表于 2019-11-6 23:07:56 | 显示全部楼层
楼主,请补一下抓轨日志!!!还有曲目以及专辑介绍!

本人发布的资源,有密码的话都是:www.cdbao.net
关于链接失效的说明(度盘好友分享的说明)
https://www.cdbao.net/thread-117499-1-1.html     
紧急通告:115,快传等网盘取消了分享功能礼包码链接全部失效
https://www.cdbao.net/thread-122759-1-1.html
您需要登录后才可以回帖 登录 | 注册

本版积分规则

快速回复 返回顶部 返回列表