查看: 177|回复: 3

[其他] 原抓:中国黑金属新浪潮合辑2019/WAV/BD

[复制链接]

11

主题

58

帖子

3462

积分

当红偶像

Rank: 4

积分
3462

社区QQ达人

发表于 2019-11-4 01:15:03 | 显示全部楼层 |阅读模式

注册会员,获得无损资源下载地址,享受高品质音乐。

您需要 登录 才可以下载或查看,没有帐号?注册

x
本帖最后由 yangzhixue 于 2019-11-4 01:20 编辑

Death Kult Ober Black Congregation
死亡始终暗黑集结-中国黑金属新浪潮
中国黑金属新浪潮合辑,限量200张
微信图片_20191104010234.jpg
微信图片_20191104010238.jpg
This compilation reflects the current Chinese black metal scene of the newest generation to a certain extent. Ranging from music styles to lyrical themes, these young bands demonstrate a vast potential in terms of further development. The new wave of Chinese black metal is happening.
  The Pest Productions team and Zuriaake shall launch a new tour on the European soil. Therefore, the shop is now temporarily closed in 26th July, and shipping will resume after 15th September. All items can still be ordered too, just bear in mind that shipping will not be possible until we return.
  During this time, you can receive a free copy of the latest Chinese black metal compilation CD “Death Kult Over Black Congregation” once you order anything from our online distribution platforms, including website shop, bandcamp and Discogs. Limited to 150 copies only for overseas customers while stocks last.


曲目 · · · · · ·   

1.Vengeful Spectre 殞煞 - Wailing Wrath 慟啸
2.Despleen - Apoptosis (Demo)
3.Dissipate - Everlasting Umbrage
4.Homa - Dead Ordeal Poem
5.DeadTrees - Deep Sea
6.Invisible - Another Day (Demo)
7.Musenia - Summer (Demo)
8.Infested Crucifix - When the Morning Star Rises

9.Sintala Rána - Sintala Rána
10.Throat Cutter - Battle of Blood Heaven
11.Reverie Noire - The Circulation
12.Woven Nosie - The Art of Wickedness

  1. Exact Audio Copy V1.3 from 2. September 2016

  2. EAC 抓取日志文件从27. 十月 2019, 18:33

  3. 未知艺术家 / 未知标题

  4. 使用驱动器  :TSSTcorpDVD+-RW SU-208GB   Adapter: 1  ID: 0

  5. 读取模式      : 可靠Secure
  6. 使用精确流     : 是
  7. 清空音频缓存    : 否
  8. 使用 C2 指示器 : 否

  9. 组合读写偏移校正:             : 0
  10. 读取 Lead-In 和 Lead-Out : 否
  11. 用静音填充抓取中丢失偏移的采样       : 是
  12. 去除首尾静音块               : 否
  13. 在CRC 计算中使用了空样本       : 是
  14. 已用接口                  : Win NT 及 2000 本地 Win32 接口
  15. 间隙处理                  : 没检测到,因此追加到上一曲目

  16. 所用输出模式: : 内部 WAV 函数
  17. 样本格式    : 44.100 Hz; 16 Bit; 立体声


  18. 已抓取 CD 的 TOC

  19.      音轨 |    起始    |    长度    |  起始扇区  |  结束扇区  
  20.     --------------------------------------------
  21.       1 |  0:00.00 |  8:16.00 |      0 |  37199
  22.       2 |  8:16.00 |  6:36.00 |  37200 |  66899
  23.       3 | 14:52.00 |  5:29.10 |  66900 |  91584
  24.       4 | 20:21.10 |  3:24.39 |  91585 | 106923
  25.       5 | 23:45.49 |  7:44.48 | 106924 | 141771
  26.       6 | 31:30.22 |  5:02.37 | 141772 | 164458
  27.       7 | 36:32.59 |  8:27.10 | 164459 | 202493
  28.       8 | 44:59.69 |  5:42.46 | 202494 | 228189
  29.       9 | 50:42.40 |  6:30.00 | 228190 | 257439
  30.      10 | 57:12.40 |  3:59.57 | 257440 | 275421
  31.      11 | 61:12.22 |  7:54.00 | 275422 | 310971
  32.      12 | 69:06.22 |  3:21.04 | 310972 | 326050


  33. 音轨  1

  34.      文件名 F:\01 音轨01.wav

  35.      峰值电平 100.0 %
  36.      抓取速度 3.7 X
  37.      音轨质量 99.9 %
  38.      复制 CRC F28F2332
  39.      复制成功

  40. 音轨  2

  41.      文件名 F:\02 音轨02.wav

  42.      峰值电平 98.8 %
  43.      抓取速度 3.6 X
  44.      音轨质量 100.0 %
  45.      复制 CRC B2C4DFAB
  46.      复制成功

  47. 音轨  3

  48.      文件名 F:\03 音轨03.wav

  49.      峰值电平 100.0 %
  50.      抓取速度 4.7 X
  51.      音轨质量 100.0 %
  52.      复制 CRC DA1B7EBE
  53.      复制成功

  54. 音轨  4

  55.      文件名 F:\04 音轨04.wav

  56.      峰值电平 98.8 %
  57.      抓取速度 3.8 X
  58.      音轨质量 99.9 %
  59.      复制 CRC 0BBC8122
  60.      复制成功

  61. 音轨  5

  62.      文件名 F:\05 音轨05.wav

  63.      峰值电平 93.8 %
  64.      抓取速度 4.1 X
  65.      音轨质量 100.0 %
  66.      复制 CRC 35113359
  67.      复制成功

  68. 音轨  6

  69.      文件名 F:\06 音轨06.wav

  70.      峰值电平 98.8 %
  71.      抓取速度 5.3 X
  72.      音轨质量 100.0 %
  73.      复制 CRC F473E165
  74.      复制成功

  75. 音轨  7

  76.      文件名 F:\07 音轨07.wav

  77.      峰值电平 98.8 %
  78.      抓取速度 5.6 X
  79.      音轨质量 100.0 %
  80.      复制 CRC 4FCB3CCD
  81.      复制成功

  82. 音轨  8

  83.      文件名 F:\08 音轨08.wav

  84.      峰值电平 93.5 %
  85.      抓取速度 4.6 X
  86.      音轨质量 99.9 %
  87.      复制 CRC 760F83CC
  88.      复制成功

  89. 音轨  9

  90.      文件名 F:\09 音轨09.wav

  91.      峰值电平 98.8 %
  92.      抓取速度 4.5 X
  93.      音轨质量 100.0 %
  94.      复制 CRC BB5B5650
  95.      复制成功

  96. 音轨 10

  97.      文件名 F:\10 音轨10.wav

  98.      峰值电平 100.0 %
  99.      抓取速度 4.6 X
  100.      音轨质量 100.0 %
  101.      复制 CRC 43351D65
  102.      复制成功

  103. 音轨 11

  104.      文件名 F:\11 音轨11.wav

  105.      峰值电平 98.8 %
  106.      抓取速度 4.7 X
  107.      音轨质量 100.0 %
  108.      复制 CRC 2E48C890
  109.      复制成功

  110. 音轨 12

  111.      文件名 F:\12 音轨12.wav

  112.      峰值电平 99.9 %
  113.      抓取速度 4.6 X
  114.      音轨质量 100.0 %
  115.      复制 CRC A64BA844
  116.      复制成功

  117. 没有错误发生

  118. 状态报告结尾

  119. ---- CUETools DB Plugin V2.1.6

  120. [CTDB TOCID: tLw8hRrU6KZgrHftQozY4cD6czc-] disk not present in database
  121. Submit result: tLw8hRrU6KZgrHftQozY4cD6czc- has been uploaded
  122. <b></b><i></i><u></u><sub></sub><sup></sup><strike></strike>
复制代码
游客,本帖隐藏的内容需要积分高于 3000 才可浏览,您当前积分为 0

评分

参与人数 1CD +400 收起 理由
最终之战 + 400 稀有资源!!!!

查看全部评分





咖咖原抓:SHIKAL SUGA - 《FAMILY》日版1998 整轨WAV+LOG/B...
原抓:张东健《花花公子》WAV/整轨/百度

112

主题

1830

帖子

4万

积分

天王巨星

Rank: 7Rank: 7Rank: 7

积分
49098

社区QQ达人

发表于 2019-11-4 09:48:12 | 显示全部楼层
这个不容错过!谢谢兄弟!
 成长值: 18180

6

主题

130

帖子

3111

积分

VIP6

Rank: 9Rank: 9Rank: 9

积分
3111

社区QQ达人

发表于 2019-11-4 18:42:34 | 显示全部楼层
这个挺好 很不错

98

主题

523

帖子

5万

积分

天王巨星

Rank: 7Rank: 7Rank: 7

积分
56258
QQ
发表于 4 天前 | 显示全部楼层
好资源啊 兄弟,你发的贴基本资源都不错。
过期不补档
您需要登录后才可以回帖 登录 | 注册

本版积分规则

快速回复 返回顶部 返回列表