最近看过此主题的会员

查看: 152|回复: 1

[欧美] sony309原抓:Kowalsky meg a Vega《Árnyék és fény》2019/WAV/BD

[复制链接]
 成长值: 35100

1万

主题

2万

帖子

77万

积分

音乐掌门人

Rank: 20Rank: 20Rank: 20Rank: 20Rank: 20

积分
774213

名人勋章社区QQ达人分享勋章精华帖达人灌水勋章

发表于 2019-10-28 14:09:52 | 显示全部楼层 |阅读模式

注册会员,获得无损资源下载地址,享受高品质音乐。

您需要 登录 才可以下载或查看,没有帐号?注册

x
cover.jpg
来自匈牙利的一只流行摇滚男团!!!

01 - Lehetetlen nincs (00:03:14)
02 - Árnyék és fény (00:03:51)
03 - Holnapelőtt (00:04:44)
04 - Mint egy jel… (00:04:36)
05 - Elrejtve (00:03:51)
06 - Nem vagyok gép (00:04:14)
07 - Ezt a Földet válaszottam (Republic cover) (00:04:06)
08 - Amire szültek (00:03:50)
09 - Mindenem… (00:03:59)
10 - A 19-esek (00:04:11)
11 - Ne érts félre érte (00:04:08)


==========================
Exact Audio Copy V1.3 from 2. September 2016

EAC extraction logfile from 22. January 2019, 20:22

Kowalsky meg a Vega / Árnyék és fény

Used drive  : PLEXTOR PX-891SAF PLUS   Adapter: 1  ID: 0

Read mode               : Secure
Utilize accurate stream : Yes
Defeat audio cache      : Yes
Make use of C2 pointers : No

Read offset correction                      : 6
Overread into Lead-In and Lead-Out          : No
Fill up missing offset samples with silence : Yes
Delete leading and trailing silent blocks   : No
Null samples used in CRC calculations       : Yes
Used interface                              : Native Win32 interface for Win NT & 2000
Gap handling                                : Appended to previous track

Used output format              : User Defined Encoder
Selected bitrate                : 1024 kBit/s
Quality                         : High
Add ID3 tag                     : No
Command line compressor         : C:\Program Files (x86)\Exact Audio Copy\Flac\flac.exe
Additional command line options : -0 -V -T "ARTIST=%artist%" -T "TITLE=%title%" -T "ALBUM=%albumtitle%" -T "DATE=%year%" -T "TRACKNUMBER=%tracknr%" -T "TOTALTRACKS=%numtracks%" -T "GENRE=%genre%" -T "COMMENT=Naftamusic Release!" %source%


TOC of the extracted CD

     Track |   Start  |  Length  | Start sector | End sector
    ---------------------------------------------------------
        1  |  0:00.00 |  3:14.10 |         0    |    14559   
        2  |  3:14.10 |  3:51.17 |     14560    |    31901   
        3  |  7:05.27 |  4:44.32 |     31902    |    53233   
        4  | 11:49.59 |  4:35.48 |     53234    |    73906   
        5  | 16:25.32 |  3:50.53 |     73907    |    91209   
        6  | 20:16.10 |  4:13.43 |     91210    |   110227   
        7  | 24:29.53 |  4:06.08 |    110228    |   128685   
        8  | 28:35.61 |  3:50.25 |    128686    |   145960   
        9  | 32:26.11 |  3:59.25 |    145961    |   163910   
       10  | 36:25.36 |  4:10.54 |    163911    |   182714   
       11  | 40:36.15 |  4:08.31 |    182715    |   201345   


Track  1

     Filename E:\Nafta Releases\Kowalsky meg a Vega - Árnyék és fény (CD+DVD 2019)[FLAC] - Naftamusic\01 - Lehetetlen nincs.wav

     Pre-gap length  0:00:02.00

     Peak level 98.8 %
     Extraction speed 2.5 X
     Track quality 100.0 %
     Test CRC AD66EF22
     Copy CRC AD66EF22
     Track not present in AccurateRip database
     Copy OK

Track  2

     Filename E:\Nafta Releases\Kowalsky meg a Vega - Árnyék és fény (CD+DVD 2019)[FLAC] - Naftamusic\02 - Árnyék és fény.wav

     Pre-gap length  0:00:02.00

     Peak level 98.8 %
     Extraction speed 2.8 X
     Track quality 100.0 %
     Test CRC AAB15A65
     Copy CRC AAB15A65
     Track not present in AccurateRip database
     Copy OK

Track  3

     Filename E:\Nafta Releases\Kowalsky meg a Vega - Árnyék és fény (CD+DVD 2019)[FLAC] - Naftamusic\03 - Holnapelőtt.wav

     Pre-gap length  0:00:02.00

     Peak level 98.8 %
     Extraction speed 3.2 X
     Track quality 100.0 %
     Test CRC 41B1D071
     Copy CRC 41B1D071
     Track not present in AccurateRip database
     Copy OK

Track  4

     Filename E:\Nafta Releases\Kowalsky meg a Vega - Árnyék és fény (CD+DVD 2019)[FLAC] - Naftamusic\04 - Mint egy jel….wav

     Pre-gap length  0:00:02.00

     Peak level 98.8 %
     Extraction speed 3.5 X
     Track quality 100.0 %
     Test CRC 2E928A37
     Copy CRC 2E928A37
     Track not present in AccurateRip database
     Copy OK

Track  5

     Filename E:\Nafta Releases\Kowalsky meg a Vega - Árnyék és fény (CD+DVD 2019)[FLAC] - Naftamusic\05 - Elrejtve.wav

     Pre-gap length  0:00:02.00

     Peak level 98.8 %
     Extraction speed 2.9 X
     Track quality 99.9 %
     Test CRC D95A7B69
     Copy CRC D95A7B69
     Track not present in AccurateRip database
     Copy OK

Track  6

     Filename E:\Nafta Releases\Kowalsky meg a Vega - Árnyék és fény (CD+DVD 2019)[FLAC] - Naftamusic\06 - Nem vagyok gép.wav

     Pre-gap length  0:00:02.00

     Peak level 98.8 %
     Extraction speed 3.9 X
     Track quality 100.0 %
     Test CRC 89C850E3
     Copy CRC 89C850E3
     Track not present in AccurateRip database
     Copy OK

Track  7

     Filename E:\Nafta Releases\Kowalsky meg a Vega - Árnyék és fény (CD+DVD 2019)[FLAC] - Naftamusic\07 - Ezt a Földet válaszottam (Republic cover).wav

     Pre-gap length  0:00:02.00

     Peak level 98.8 %
     Extraction speed 4.1 X
     Track quality 100.0 %
     Test CRC 29B73344
     Copy CRC 29B73344
     Track not present in AccurateRip database
     Copy OK

Track  8

     Filename E:\Nafta Releases\Kowalsky meg a Vega - Árnyék és fény (CD+DVD 2019)[FLAC] - Naftamusic\08 - Amire szültek.wav

     Pre-gap length  0:00:02.00

     Peak level 98.8 %
     Extraction speed 4.3 X
     Track quality 100.0 %
     Test CRC 370C592F
     Copy CRC 370C592F
     Track not present in AccurateRip database
     Copy OK

Track  9

     Filename E:\Nafta Releases\Kowalsky meg a Vega - Árnyék és fény (CD+DVD 2019)[FLAC] - Naftamusic\09 - Mindenem….wav

     Pre-gap length  0:00:02.00

     Peak level 98.8 %
     Extraction speed 4.5 X
     Track quality 100.0 %
     Test CRC 1316680D
     Copy CRC 1316680D
     Track not present in AccurateRip database
     Copy OK

Track 10

     Filename E:\Nafta Releases\Kowalsky meg a Vega - Árnyék és fény (CD+DVD 2019)[FLAC] - Naftamusic\10 - A 19-esek.wav

     Pre-gap length  0:00:02.00

     Peak level 98.8 %
     Extraction speed 4.6 X
     Track quality 100.0 %
     Test CRC A7CDF1F8
     Copy CRC A7CDF1F8
     Track not present in AccurateRip database
     Copy OK

Track 11

     Filename E:\Nafta Releases\Kowalsky meg a Vega - Árnyék és fény (CD+DVD 2019)[FLAC] - Naftamusic\11 - Ne érts félre érte.wav

     Pre-gap length  0:00:03.00

     Peak level 98.8 %
     Extraction speed 4.9 X
     Track quality 100.0 %
     Test CRC CD7D4BD3
     Copy CRC CD7D4BD3
     Track not present in AccurateRip database
     Copy OK


None of the tracks are present in the AccurateRip database

No errors occurred

End of status report

==== Log checksum 8A7CFDBA176FF5C8E9519CD56D17B648228D234BA228C3CF4E8D6E81419D2EC0 ====






原抓黑胶:Judas Priest-《Painkiller》/DSD 5.6mhz 1bit DSD128/dsf+Cover
原抓:葬尸湖《深庭》2019/WAV/BD

本人发布的资源,有密码的话都是:www.cdbao.net
关于链接失效的说明(度盘好友分享的说明)
https://www.cdbao.net/thread-117499-1-1.html     
紧急通告:115,快传等网盘取消了分享功能礼包码链接全部失效
https://www.cdbao.net/thread-122759-1-1.html
 成长值: 35100

1万

主题

2万

帖子

77万

积分

音乐掌门人

Rank: 20Rank: 20Rank: 20Rank: 20Rank: 20

积分
774213

名人勋章社区QQ达人分享勋章精华帖达人灌水勋章

发表于 2019-10-28 14:19:07 | 显示全部楼层
band.jpeg
Kowalsky Meg A Vega
Sites:kowa.hu, Facebook
Members:Kowalsky, Szórád "Jimmy" Csaba, Vajda "Sóder" Péter

cover.jpg
booklet1.jpg
booklet2.jpg
booklet3.jpg
booklet4.jpg
booklet5.jpg
booklet6.jpg
booklet7.jpg
booklet8.jpg

cd.jpg
double front.jpg
dvd.jpg
inside1.jpg
inside2.jpg
matrix cd.jpg
matrix dvd.jpg
proof.jpg

===========================
百度下载(阿战音乐仓库)
游客,如果您要查看本帖隐藏内容请回复

本人发布的资源,有密码的话都是:www.cdbao.net
关于链接失效的说明(度盘好友分享的说明)
https://www.cdbao.net/thread-117499-1-1.html     
紧急通告:115,快传等网盘取消了分享功能礼包码链接全部失效
https://www.cdbao.net/thread-122759-1-1.html
您需要登录后才可以回帖 登录 | 注册

本版积分规则

快速回复 返回顶部 返回列表