最近看过此主题的会员

查看: 175|回复: 0

[华语] 原抓:陈朋《五味杂陈 》2019/WAV整轨/BD

[复制链接]

42

主题

177

帖子

1万

积分

流行教主

Rank: 6Rank: 6

积分
19103
发表于 2019-10-22 18:23:59 | 显示全部楼层 |阅读模式

注册会员,获得无损资源下载地址,享受高品质音乐。

您需要 登录 才可以下载或查看,没有帐号?注册

x
表演者:陈朋
专辑语种:国语
唱片公司:河南电子音像
专辑类别:录音室专辑
发行日期:2019-02-28

COVER.jpg
捕获.JPG


酸·故乡
2006《故乡的河》
2006《童戏》

甜·亲情
2009《奶奶》
2014《爸妈说》

苦·爱情
2014《郑州爱情故事》:
2008《虔诚》

辣·友情
2011《一定要幸福》
2007《同学》

咸·远方
2015《海螺姑娘》
2015《凤歌》

独立音乐人陈朋,一直以推动家乡音乐文化产业为目标。这张专辑收录了他从生活百态中感悟到的"酸甜苦辣咸",让我们在快节奏的生活中停下脚步,一起来细细品味生活中的《五味杂陈》。

01 故乡的河
02 童戏
03 奶 奶
04 爸妈说
05 郑州爱情故事
06 虔诚
07 同学
08 一定要幸福
09 海螺姑娘
10 凤 歌

游客,如果您要查看本帖隐藏内容请回复

  1. Exact Audio Copy V1.3 from 2. September 2016

  2. EAC 抓取日志文件从28. 五月 2019, 2:53

  3. 陈朋 / 五味杂陈

  4. 使用驱动器  :PLEXTOR CD-R   PREMIUM   Adapter: 1  ID: 1

  5. 读取模式      : 可靠Secure
  6. 使用精确流     : 是
  7. 清空音频缓存    : 否
  8. 使用 C2 指示器 : 是

  9. 读取偏移校正:               : 30
  10. 读取 Lead-In 和 Lead-Out : 否
  11. 用静音填充抓取中丢失偏移的采样       : 是
  12. 去除首尾静音块               : 否
  13. 在CRC 计算中使用了空样本       : 是
  14. 已用接口                  : Win NT 及 2000 本地 Win32 接口

  15. 所用输出模式: : 内部 WAV 函数
  16. 样本格式    : 44.100 Hz; 16 Bit; 立体声


  17. 已抓取 CD 的 TOC

  18.      音轨 |    起始    |    长度    |  起始扇区  |  结束扇区  
  19.     --------------------------------------------
  20.       1 |  0:00.00 |  4:56.21 |      0 |  22220
  21.       2 |  4:56.21 |  4:39.56 |  22221 |  43201
  22.       3 |  9:36.02 |  5:35.37 |  43202 |  68363
  23.       4 | 15:11.39 |  3:42.00 |  68364 |  85013
  24.       5 | 18:53.39 |  4:43.10 |  85014 | 106248
  25.       6 | 23:36.49 |  4:49.48 | 106249 | 127971
  26.       7 | 28:26.22 |  4:28.50 | 127972 | 148121
  27.       8 | 32:54.72 |  4:36.03 | 148122 | 168824
  28.       9 | 37:31.00 |  4:14.42 | 168825 | 187916
  29.      10 | 41:45.42 |  4:31.65 | 187917 | 208306


  30. 范围状态及错误

  31. 已选择范围

  32.      文件名 G:\EAC\陈朋 - 2019《五味杂陈》[WAV整轨]\陈朋 - 五味杂陈.wav

  33.      峰值电平 98.8 %
  34.      抓取速度 8.0 X
  35.      范围质量 100.0 %
  36.      复制 CRC 45918CC3
  37.      复制成功

  38. 没有错误发生

  39. 状态报告结尾

  40. ---- CUETools DB Plugin V2.1.6

  41. [CTDB TOCID: Srp_qanUUqbQc6xBAzZ41DZN.VY-] disk not present in database
  42. Submit result: Srp_qanUUqbQc6xBAzZ41DZN.VY- has been uploaded

复制代码








评分

参与人数 1CD +240 收起 理由
最终之战 + 240 感谢分享资源,CD包因你而精彩.

查看全部评分





飞鱼原抓:范玮琪《一比一》2005 整轨WAV+LOG/BD
原抓:戏班《就是这个调调 》2012/WAV整轨/BD
您需要登录后才可以回帖 登录 | 注册

本版积分规则

快速回复 返回顶部 返回列表