最近看过此主题的会员

查看: 290|回复: 27

原抓:林宝《茶禅雅韵》WAV/BD

[复制链接]

3

主题

282

帖子

5386

积分

人气天王

Rank: 5Rank: 5

积分
5386

社区QQ达人

发表于 2019-10-22 02:24:55 | 显示全部楼层 |阅读模式

注册会员,获得无损资源下载地址,享受高品质音乐。

您需要 登录 才可以下载或查看,没有帐号?注册

x
mmexport1571681805296.jpg

mmexport1571681817965.jpg

mmexport1571681807854.jpg

mmexport1571681813337.jpg



自购的一张。一直来都是在论坛伸手,(谢谢论坛里分享的朋友)经验不足不知道格式对不对。


提取码:
游客,如果您要查看本帖隐藏内容请回复



(再请教个问题。我用电脑发帖点附件和图片都不会弹上传窗口出来,只好拿手机发帖了。用的是联通网和移动网,手机用网页模式也不行只可以用手机网页模式才行。不知道是什么问题?是不是论坛要求高级别才可以发帖。)


Exact Audio Copy V1.3 from 2. September 2016


EAC 抓取日志文件从19. 七月 2019, 20:09


林宝 / 茶禅雅韵


使用驱动器  :PIONEER DVD-RW  DVR-221L   Adapter: 1  ID: 0


读取模式      : 可靠Secure

使用精确流     : 是

清空音频缓存    : 是

使用 C2 指示器 : 否


读取偏移校正:               : 0

读取 Lead-In 和 Lead-Out : 否

用静音填充抓取中丢失偏移的采样       : 是

去除首尾静音块               : 否

在CRC 计算中使用了空样本       : 是

已用接口                  : Win NT 及 2000 本地 Win32 接口

间隙处理                  : 没检测到,因此追加到上一曲目


所用输出模式: : 内部 WAV 函数

样本格式    : 44.100 Hz; 16 Bit; 立体声



已抓取 CD 的 TOC


音轨 |    起始    |    长度    |  起始扇区  |  结束扇区

--------------------------------------------

1 |  0:00.00 |  2:37.43 |      0 |  11817

2 |  2:37.43 |  6:53.03 |  11818 |  42795

3 |  9:30.46 |  6:14.03 |  42796 |  70848

4 | 15:44.49 |  4:09.34 |  70849 |  89557

5 | 19:54.08 |  5:29.54 |  89558 | 114286

6 | 25:23.62 |  6:30.18 | 114287 | 143554

7 | 31:54.05 |  4:29.03 | 143555 | 163732

8 | 36:23.08 |  4:31.64 | 163733 | 184121

9 | 40:54.72 |  4:23.43 | 184122 | 203889

10 | 45:18.40 |  5:29.54 | 203890 | 228618

11 | 50:48.19 |  2:55.73 | 228619 | 241816



音轨  1


文件名 C:\Users\Administrator\Desktop\林宝-上海谣(泸语)\茶禅雅韵\01 01冥想.wav


峰值电平 94.6 %

抓取速度 3.6 X

音轨质量 100.0 %

复制 CRC 44389D39

复制成功


音轨  2


文件名 C:\Users\Administrator\Desktop\林宝-上海谣(泸语)\茶禅雅韵\02 02心经.wav


峰值电平 96.9 %

抓取速度 5.2 X

音轨质量 100.0 %

复制 CRC 4D24CC0C

复制成功


音轨  3


文件名 C:\Users\Administrator\Desktop\林宝-上海谣(泸语)\茶禅雅韵\03 03空.wav


峰值电平 99.4 %

抓取速度 5.9 X

音轨质量 100.0 %

复制 CRC 963EA87A

复制成功


音轨  4


文件名 C:\Users\Administrator\Desktop\林宝-上海谣(泸语)\茶禅雅韵\04 04花 香.wav


峰值电平 97.8 %

抓取速度 6.2 X

音轨质量 100.0 %

复制 CRC EE72920D

复制成功


音轨  5


文件名 C:\Users\Administrator\Desktop\林宝-上海谣(泸语)\茶禅雅韵\05 05茶如人生.wav


峰值电平 95.8 %

抓取速度 6.8 X

音轨质量 100.0 %

复制 CRC E7F4C569

复制成功


音轨  6


文件名 C:\Users\Administrator\Desktop\林宝-上海谣(泸语)\茶禅雅韵\06 06你是茶.wav


峰值电平 100.0 %

抓取速度 7.4 X



评分

参与人数 1CD +240 收起 理由
最终之战 + 240 走心的帖子,必须赞一个

查看全部评分





简弘亦《成人书》2018/FLAC/CT
《国语老歌经典 第二代 7》WAV+CUE/BD

0

主题

139

帖子

610

积分

职业歌手

Rank: 3Rank: 3

积分
610

社区QQ达人

发表于 2019-10-22 04:28:53 | 显示全部楼层
不错的一张碟哈,感谢分享,辛苦了

0

主题

565

帖子

14

积分

新人会员,请认真回复,若恶意回复,直接封号

Rank: 1

积分
14
发表于 2019-10-22 04:36:08 | 显示全部楼层
纯音乐吗???

1

主题

264

帖子

1052

积分

职业歌手

Rank: 3Rank: 3

积分
1052

社区QQ达人

发表于 2019-10-22 07:27:52 | 显示全部楼层
安安静静的品茶赏曲

0

主题

534

帖子

723

积分

职业歌手

Rank: 3Rank: 3

积分
723
发表于 2019-10-22 08:17:59 | 显示全部楼层
THANK A LOT FOR YOUR MUSIC

1

主题

116

帖子

687

积分

职业歌手

Rank: 3Rank: 3

积分
687
发表于 2019-10-22 08:22:07 | 显示全部楼层
谢谢分享好音乐。

0

主题

148

帖子

89

积分

新人会员,请认真回复,若恶意回复,直接封号

Rank: 1

积分
89
发表于 2019-10-22 10:39:07 | 显示全部楼层
这音乐不错,谢谢楼主分享
integral

1

主题

1706

帖子

3194

积分

当红偶像

Rank: 4

积分
3194

社区QQ达人

发表于 2019-10-22 10:41:47 | 显示全部楼层
欣赏下,谢谢你!!!

0

主题

121

帖子

23

积分

新人会员,请认真回复,若恶意回复,直接封号

Rank: 1

积分
23
发表于 2019-10-22 10:58:10 | 显示全部楼层
下载来感受一下

0

主题

30

帖子

84

积分

新人会员,请认真回复,若恶意回复,直接封号

Rank: 1

积分
84
发表于 2019-10-22 11:06:05 | 显示全部楼层
是茶友吗 哈哈 喝茶听音乐 美滋滋

0

主题

723

帖子

502

积分

职业歌手

Rank: 3Rank: 3

积分
502

社区QQ达人

发表于 2019-10-22 11:07:39 | 显示全部楼层
收下听下好多谢!

0

主题

31

帖子

1089

积分

职业歌手

Rank: 3Rank: 3

积分
1089
发表于 2019-10-22 11:14:06 | 显示全部楼层
美滋滋~~喝茶听音乐

2

主题

574

帖子

1458

积分

当红偶像

Rank: 4

积分
1458
发表于 2019-10-22 13:01:12 | 显示全部楼层
林宝现在的歌曲有点另类但是蛮好听

9

主题

757

帖子

2641

积分

当红偶像

Rank: 4

积分
2641

社区QQ达人

发表于 2019-10-22 18:35:10 | 显示全部楼层
快意人生。。。。。。。。。。。。。。。

0

主题

1332

帖子

1529

积分

当红偶像

Rank: 4

积分
1529
发表于 2019-10-23 08:43:08 | 显示全部楼层
每个人都应在适当的时候休一下心
您需要登录后才可以回帖 登录 | 注册

本版积分规则

快速回复 返回顶部 返回列表