最近看过此主题的会员

查看: 269|回复: 2

[欧美] lavder原抓:Bat For Lashes《Lost Girls》2019/FLAC/BD

[复制链接]
 成长值: 35160

1万

主题

2万

帖子

77万

积分

音乐掌门人

Rank: 20Rank: 20Rank: 20Rank: 20Rank: 20

积分
774246

名人勋章社区QQ达人分享勋章精华帖达人灌水勋章

发表于 2019-10-18 10:48:18 | 显示全部楼层 |阅读模式

注册会员,获得无损资源下载地址,享受高品质音乐。

您需要 登录 才可以下载或查看,没有帐号?注册

x

Bat for Lashes
Real Name:Natasha Khan


Bat for Lashes于1979年10月25日出生于巴基斯坦,直到成年Bat for Lashes才脱离这个宗教色彩浓厚的国度开始自己的环球旅行,最后落脚于欧洲进行深造并开始创作自己的音乐.在Bat for Lashes的音乐中你可以轻易找到宗教色彩的音乐元素,整盘专集都在轻轻的舒缓的唱着,你甚至可以想像的到Bat for Lashes唱歌时轻闭双眼演唱的摸样,似乎在表达着某种只有她自己能看到的境界.没有刻意去营造某种冷酷,一切都只是淡淡的,轻轻的,极强的穿透力就这样抓紧你的听觉神经而使你不想再去做其他事情!



1-1.jpg
cover.jpg

艺人:        Bat for Lashes
语种:        英语
唱片公司:        AWAL Recordings Ltd
发行时间:        2019年09月06日
专辑类别:        录音室专辑

Bat for Lashes专辑介绍:
Kids in the Dark” sets the scene, with its opulent haze of 80’s synths and stuttering disco beats, but nothing in this topsy-turvy world is quite as it seems. “Jasmine” leaves eerie clues – “a body bag/ on eucalyptus hill, and the Hollywood forever and the endless sleeping pills”, while even at its most outwardly pop. In the pristine “The Hunger” or the swooning “So Good”, there is an underlying menace and heightened sensuality, with Khan singing about “an addiction that I cannot fight…a drug that never numbs this pain”. Then there’s the soaring “Desert Man”, which lays bare the push and pull of burgeoning romance, with Khan resolutely declaring “love is a nowhere land”.

Previous album The Bride, was melancholy and mournful, a tone poem of loss and regret, Lost Girls is described as her mischievous younger sister, widescreen in scope and bursting with Technicolour intensity. It’s an album for driving in the dark; holding hands at sunset; jumping off bridges with vampires; riding your bike across the moon.

01. Kids In The Dark (03:28)
02. The Hunger (04:59)
03. Feel For You (03:39)
04. Desert Man (03:26)
05. Jasmine (02:55)
06. Vampires (03:02)
07. So Good (03:33)
08. Safe Tonight (04:16)
09. Peach Sky (04:34)
10. Mountains (04:31)


Exact Audio Copy V1.3 from 2. September 2016

EAC extraction logfile from 23. September 2019, 16:45

Bat for Lashes / Lost Girls

Used drive  : ASUS    DRW-24F1ST   d   Adapter: 1  ID: 0

Read mode               : Secure
Utilize accurate stream : Yes
Defeat audio cache      : Yes
Make use of C2 pointers : No

Read offset correction                      : 6
Overread into Lead-In and Lead-Out          : No
Fill up missing offset samples with silence : Yes
Delete leading and trailing silent blocks   : No
Null samples used in CRC calculations       : Yes
Used interface                              : Native Win32 interface for Win NT & 2000
Gap handling                                : Appended to previous track

Used output format              : User Defined Encoder
Selected bitrate                : 1024 kBit/s
Quality                         : High
Add ID3 tag                     : No
Command line compressor         : C:\Program Files (x86)\Exact Audio Copy\Flac\flac.exe
Additional command line options : -8 -e -p -V -T "ARTIST=%artist%" -T "TITLE=%title%" -T "ALBUM=%albumtitle%" -T "DATE=%year%" -T "TRACKNUMBER=%tracknr%" -T "GENRE=%genre%" -T "PERFORMER=%albuminterpret%" -T "COMPOSER=%composer%" %haslyrics%--tag-from-file=LYRICS="%lyricsfile%"%haslyrics% -T "ALBUMARTIST=%albumartist%" -T "DISCNUMBER=%cdnumber%" -T "TOTALDISCS=%totalcds%" -T "TOTALTRACKS=%numtracks%" -T "COMMENT=%comment%" %source% -o %dest%

TOC of the extracted CD

     Track |   Start  |  Length  | Start sector | End sector
    ---------------------------------------------------------
        1  |  0:00.00 |  3:29.46 |         0    |    15720
        2  |  3:29.46 |  4:59.00 |     15721    |    38145
        3  |  8:28.46 |  3:39.65 |     38146    |    54635
        4  | 12:08.36 |  3:26.26 |     54636    |    70111
        5  | 15:34.62 |  2:55.52 |     70112    |    83288
        6  | 18:30.39 |  3:02.06 |     83289    |    96944
        7  | 21:32.45 |  3:33.13 |     96945    |   112932
        8  | 25:05.58 |  4:16.51 |    112933    |   132183
        9  | 29:22.34 |  4:34.73 |    132184    |   152806
       10  | 33:57.32 |  4:29.41 |    152807    |   173022

Track  1

     Filename H:\Torrents\Media\Bat for Lashes - Lost Girls [AWAL BATFL01CD] (FLAC)\01 - Kids in the Dark.wav

     Pre-gap length  0:00:02.00

     Peak level 99.4 %
     Extraction speed 1.0 X
     Track quality 100.0 %
     Test CRC BAB6C943
     Copy CRC BAB6C943
     Track not present in AccurateRip database
     Copy OK

Track  2

     Filename H:\Torrents\Media\Bat for Lashes - Lost Girls [AWAL BATFL01CD] (FLAC)\02 - The Hunger.wav

     Peak level 99.3 %
     Extraction speed 1.2 X
     Track quality 100.0 %
     Test CRC DC3FFAA2
     Copy CRC DC3FFAA2
     Track not present in AccurateRip database
     Copy OK

Track  3

     Filename H:\Torrents\Media\Bat for Lashes - Lost Girls [AWAL BATFL01CD] (FLAC)\03 - Feel for You.wav

     Peak level 99.3 %
     Extraction speed 1.2 X
     Track quality 100.0 %
     Test CRC 3FFD1665
     Copy CRC 3FFD1665
     Track not present in AccurateRip database
     Copy OK

Track  4

     Filename H:\Torrents\Media\Bat for Lashes - Lost Girls [AWAL BATFL01CD] (FLAC)\04 - Desert Man.wav

     Peak level 99.5 %
     Extraction speed 1.3 X
     Track quality 100.0 %
     Test CRC DFF02528
     Copy CRC DFF02528
     Track not present in AccurateRip database
     Copy OK

Track  5

     Filename H:\Torrents\Media\Bat for Lashes - Lost Girls [AWAL BATFL01CD] (FLAC)\05 - Jasmine.wav

     Peak level 99.5 %
     Extraction speed 1.3 X
     Track quality 100.0 %
     Test CRC FB8EC343
     Copy CRC FB8EC343
     Track not present in AccurateRip database
     Copy OK

Track  6

     Filename H:\Torrents\Media\Bat for Lashes - Lost Girls [AWAL BATFL01CD] (FLAC)\06 - Vampires.wav

     Peak level 99.5 %
     Extraction speed 1.4 X
     Track quality 100.0 %
     Test CRC 4DF357E1
     Copy CRC 4DF357E1
     Track not present in AccurateRip database
     Copy OK

Track  7

     Filename H:\Torrents\Media\Bat for Lashes - Lost Girls [AWAL BATFL01CD] (FLAC)\07 - So Good.wav

     Peak level 99.4 %
     Extraction speed 1.5 X
     Track quality 100.0 %
     Test CRC E209349C
     Copy CRC E209349C
     Track not present in AccurateRip database
     Copy OK

Track  8

     Filename H:\Torrents\Media\Bat for Lashes - Lost Girls [AWAL BATFL01CD] (FLAC)\08 - Safe Tonight.wav

     Peak level 99.4 %
     Extraction speed 1.6 X
     Track quality 100.0 %
     Test CRC BF365092
     Copy CRC BF365092
     Track not present in AccurateRip database
     Copy OK

Track  9

     Filename H:\Torrents\Media\Bat for Lashes - Lost Girls [AWAL BATFL01CD] (FLAC)\09 - Peach Sky.wav

     Peak level 99.3 %
     Extraction speed 1.7 X
     Track quality 100.0 %
     Test CRC 5B40E6F9
     Copy CRC 5B40E6F9
     Track not present in AccurateRip database
     Copy OK

Track 10

     Filename H:\Torrents\Media\Bat for Lashes - Lost Girls [AWAL BATFL01CD] (FLAC)\10 - Mountains.wav

     Peak level 99.4 %
     Extraction speed 1.8 X
     Track quality 100.0 %
     Test CRC 29EF0906
     Copy CRC 29EF0906
     Track not present in AccurateRip database
     Copy OK

None of the tracks are present in the AccurateRip database

No errors occurred

End of status report

---- CUETools DB Plugin V2.1.6

[CTDB TOCID: 7WiDVJWTwiiSjBjVK_rVdNUiU4A-] found
Submit result: 7WiDVJWTwiiSjBjVK_rVdNUiU4A- has been confirmed
Track | CTDB Status
  1   | (39/39) Accurately ripped
  2   | (39/39) Accurately ripped
  3   | (39/39) Accurately ripped
  4   | (39/39) Accurately ripped
  5   | (39/39) Accurately ripped
  6   | (39/39) Accurately ripped
  7   | (39/39) Accurately ripped
  8   | (39/39) Accurately ripped
  9   | (39/39) Accurately ripped
10   | (39/39) Accurately ripped

==== Log checksum 09D0C4919F77CBA822F5F26C6F39F7B2441EEEDA88AF1A2D56F4E224809FE45F ====






mvasiliiv原抓:Post Malone《 Hollywood's Bleeding》2019/FLAC/BD
飞鱼原抓:刘若英《年华》2001 整轨WAV+LOG/BD

本人发布的资源,有密码的话都是:www.cdbao.net
关于链接失效的说明(度盘好友分享的说明)
https://www.cdbao.net/thread-117499-1-1.html     
紧急通告:115,快传等网盘取消了分享功能礼包码链接全部失效
https://www.cdbao.net/thread-122759-1-1.html
 成长值: 35160

1万

主题

2万

帖子

77万

积分

音乐掌门人

Rank: 20Rank: 20Rank: 20Rank: 20Rank: 20

积分
774246

名人勋章社区QQ达人分享勋章精华帖达人灌水勋章

发表于 2019-10-18 10:53:43 | 显示全部楼层
1-1.jpg


cover.jpg

2-1.jpg

2.jpg

4.jpg

5.jpg

3.jpg

====================================

百度下载(阿战音乐仓库)

游客,如果您要查看本帖隐藏内容请回复





本人发布的资源,有密码的话都是:www.cdbao.net
关于链接失效的说明(度盘好友分享的说明)
https://www.cdbao.net/thread-117499-1-1.html     
紧急通告:115,快传等网盘取消了分享功能礼包码链接全部失效
https://www.cdbao.net/thread-122759-1-1.html
 成长值: 17550

6

主题

444

帖子

738

积分

VIP6

Rank: 9Rank: 9Rank: 9

积分
738

社区QQ达人

发表于 2019-10-18 23:22:55 | 显示全部楼层
听过她之前有一张,一直记得她的名字。。。。
您需要登录后才可以回帖 登录 | 注册

本版积分规则

快速回复 返回顶部 返回列表