最近看过此主题的会员

查看: 306|回复: 1

[欧美] mvasiliiv原抓:Post Malone《 Hollywood's Bleeding》2019/FLAC/BD

[复制链接]
 成长值: 35115

1万

主题

2万

帖子

77万

积分

音乐掌门人

Rank: 20Rank: 20Rank: 20Rank: 20Rank: 20

积分
774213

名人勋章社区QQ达人分享勋章精华帖达人灌水勋章

发表于 2019-10-18 10:26:06 | 显示全部楼层 |阅读模式

注册会员,获得无损资源下载地址,享受高品质音乐。

您需要 登录 才可以下载或查看,没有帐号?注册

x

Post Malone,美国唱作型音乐人,rapper,制作人。15岁受到Bob Dylan影响对音乐开始产生兴趣,50 Cent与Key!一并成为了Post Malone音乐生涯中最重要的启蒙者。2015年他发行个人首单“White Iverson”走入大众视野,同年签入Republic Records并于第二年发布个人首张专辑《Stoney》,首支宣传曲“Congratulations”一举攻入TOP10,登上Billboard单曲榜第8名,令Post Malone名声鹤起。《纽约时报》称之为“在唱歌与说唱,嘻哈与能令人酥骨的电音民谣之间流淌的艺术家”,而Post Malone则定义自己的风格为“Genre-less”。


1.jpg

Post Malone ‎– Hollywood's Bleeding

地区:United States of America 美国
艺人:Post Malone
语种:英语
唱片公司:Republic Records
发行时间:2019年09月06日
专辑类别:录音室专辑
专辑风格:流行说唱 Pop Rap, 嘻哈 Hip-Hop


Tracklist
Hollywood's Bleeding        2:36
Saint Tropez        2:30
Enemies        3:16
Allergic        2:36
A Thousand Bad Times        3:41
Circles        3:34
Die For Me        4:05
On The Road        3:38
Take What You Want        3:49
I'm Gonna Be        3:20
Staring At The Sun        2:48
Sunflower        2:38
Internet        2:03
Goodbyes        2:56
Myself        2:38
I Know        2:21
Wow.        2:29

==============================

foobar2000 1.4.8 / Замер динамического диапазона (DR) 1.1.1
Дата отчёта:  2019-10-12 21:49:13

--------------------------------------------------------------------------------
Анализ:   Post Malone & Swae Lee / Hollywood's Bleeding (1)
          Post Malone / Hollywood's Bleeding (2-16)
--------------------------------------------------------------------------------

DR         Пики         RMS           Продолжительность трека
--------------------------------------------------------------------------------
DR5        0.00 дБ    -6.66 дБ      2:38 12-Sunflower (Spider-Man: Into the Spider-Verse)
DR3        0.00 дБ    -5.26 дБ      2:36 01-Hollywood's Bleeding
DR4        0.00 дБ    -5.54 дБ      2:31 02-Saint-Tropez
DR4        0.00 дБ    -6.17 дБ      3:17 03-Enemies (feat. DaBaby)
DR4        0.00 дБ    -5.17 дБ      2:37 04-Allergic
DR3        0.00 дБ    -5.33 дБ      3:41 05-A Thousand Bad Times
DR3        0.00 дБ    -4.95 дБ      3:35 06-Circles
DR4        0.00 дБ    -5.55 дБ      4:05 07-Die For Me (feat. Future & Halsey)
DR3        0.00 дБ    -5.13 дБ      3:38 08-On The Road (feat. Meek Mill & Lil Baby)
DR4        0.00 дБ    -4.96 дБ      3:50 09-Take What You Want (feat. Ozzy Osbourne & Travis Scott)
DR4        0.00 дБ    -6.66 дБ      3:21 10-I'm Gonna Be
DR4        0.00 дБ    -5.22 дБ      2:48 11-Staring At The Sun (feat. SZA)
DR4        0.00 дБ    -7.35 дБ      2:03 13-Internet
DR3        0.00 дБ    -5.58 дБ      2:55 14-Goodbyes (feat. Young Thug)
DR4        0.00 дБ    -5.31 дБ      2:38 15-Myself
DR2        0.00 дБ    -4.71 дБ      2:30 17-Wow.
--------------------------------------------------------------------------------

Количество треков: 16
Реальные значения DR: DR4

Частота:   44100 Гц
Каналов:   2
Разрядность:   24
Битрейт:   1506 кбит/с
Кодек:   FLAC
================================================================================





子芙《到不了的远方—子芙2019音乐自选辑》/整轨WAV/BD
lavder原抓:Bat For Lashes《Lost Girls》2019/FLAC/BD

本人发布的资源,有密码的话都是:www.cdbao.net
关于链接失效的说明(度盘好友分享的说明)
https://www.cdbao.net/thread-117499-1-1.html     
紧急通告:115,快传等网盘取消了分享功能礼包码链接全部失效
https://www.cdbao.net/thread-122759-1-1.html
 成长值: 35115

1万

主题

2万

帖子

77万

积分

音乐掌门人

Rank: 20Rank: 20Rank: 20Rank: 20Rank: 20

积分
774213

名人勋章社区QQ达人分享勋章精华帖达人灌水勋章

发表于 2019-10-18 10:27:46 | 显示全部楼层
1.jpg
2.jpg
3.jpg
4.jpg
5.jpg
6.jpg
7.jpg
8.jpg
9.jpg
10.jpg
11.jpg
12.jpg
13.jpg
14.jpg
15.jpg
16.jpg
17.jpg
18.jpg
19.jpg
20.jpg
21.jpg
22.jpg
23.jpg
24.jpg
25.jpg
26.jpg
27.jpg


================================

百度下载(阿战音乐仓库)

[hide]


提取码:nnzb

复制这段内容后打开百度网盘手机App,操作更方便哦


[/hdie]


本人发布的资源,有密码的话都是:www.cdbao.net
关于链接失效的说明(度盘好友分享的说明)
https://www.cdbao.net/thread-117499-1-1.html     
紧急通告:115,快传等网盘取消了分享功能礼包码链接全部失效
https://www.cdbao.net/thread-122759-1-1.html
您需要登录后才可以回帖 登录 | 注册

本版积分规则

快速回复 返回顶部 返回列表