最近看过此主题的会员

查看: 205|回复: 4

[其他] 原抓:暗狱戮尸《物极必反》2019/WAV/BD

[复制链接]

4

主题

43

帖子

1392

积分

当红偶像

Rank: 4

积分
1392

社区QQ达人

发表于 2019-10-7 19:16:31 | 显示全部楼层 |阅读模式

注册会员,获得无损资源下载地址,享受高品质音乐。

您需要 登录 才可以下载或查看,没有帐号?注册

x



The Dark Prison Massacre

Country of origin:China

Location:Tianjin

Status:Active

Formed in:2005

Genre:Slam/Brutal Death Metal

Lyrical themes:Gore, Mutilation, Death, Sickness, Perversion

Current label:Pathologically Explicit Recordings

Years active:2005-present

======================================


AN.jpg


暗狱戮尸 The Dark Prison Massacre

天津残酷死亡金属名团




曲目:01.物极必反

         02.道德遗产

         03.坚壁清野

         04.来者不善

         05.单方面屠杀(REMIX)

         06.道德遗产(伴奏)



Exact Audio Copy V1.3 from 2. September 2016

EAC 抓取日志文件从5. 十月 2019, 13:48

未知艺术家 / 未知标题

使用驱动器  :TSSTcorpDVD+-RW SU-208GB   Adapter: 1  ID: 0

读取模式      : 可靠Secure

使用精确流     : 是

清空音频缓存    : 否

使用 C2 指示器 : 否

组合读写偏移校正:             : 0

读取 Lead-In 和 Lead-Out : 否

用静音填充抓取中丢失偏移的采样       : 是

去除首尾静音块               : 否

在CRC 计算中使用了空样本       : 是

已用接口                  : Win NT 及 2000 本地 Win32 接口

间隙处理                  : 没检测到,因此追加到上一曲目

所用输出模式: : 内部 WAV 函数

样本格式    : 44.100 Hz; 16 Bit; 立体声


已抓取 CD 的 TOC

音轨 |    起始    |    长度    |  起始扇区  |  结束扇区

--------------------------------------------

1 |  0:00.00 |  3:25.00 |      0 |  15374

2 |  3:25.00 |  3:22.00 |  15375 |  30524

3 |  6:47.00 |  3:20.00 |  30525 |  45524

4 | 10:07.00 |  3:12.00 |  45525 |  59924

5 | 13:19.00 |  7:15.00 |  59925 |  92549

6 | 20:34.00 |  3:22.00 |  92550 | 107699


音轨  1

文件名 F:\无损\暗狱戮尸\物极必反\01. 未知艺术家 - 音轨01.wav

峰值电平 97.7 %

抓取速度 3.9 X

音轨质量 100.0 %

复制 CRC 19E469A4

复制成功

音轨  2

文件名 F:\无损\暗狱戮尸\物极必反\02. 未知艺术家 - 音轨02.wav

峰值电平 97.7 %

抓取速度 2.1 X

音轨质量 100.0 %

复制 CRC 5054CF79

复制成功

音轨  3

文件名 F:\无损\暗狱戮尸\物极必反\03. 未知艺术家 - 音轨03.wav

峰值电平 97.7 %

抓取速度 2.3 X

音轨质量 100.0 %

复制 CRC A861D653

复制成功

音轨  4

文件名 F:\无损\暗狱戮尸\物极必反\04. 未知艺术家 - 音轨04.wav

峰值电平 97.7 %

抓取速度 2.4 X

音轨质量 100.0 %

复制 CRC 08B83FE7

复制成功

音轨  5

文件名 F:\无损\暗狱戮尸\物极必反\05. 未知艺术家 - 音轨05.wav

峰值电平 97.7 %

抓取速度 2.7 X

音轨质量 100.0 %

复制 CRC 46AA1633

复制成功

音轨  6

文件名 F:\无损\暗狱戮尸\物极必反\06. 未知艺术家 - 音轨06.wav

峰值电平 97.7 %

抓取速度 2.8 X

音轨质量 100.0 %

复制 CRC 77A96123

复制成功

没有错误发生

状态报告结尾

---- CUETools DB Plugin V2.1.6

[CTDB TOCID: 6VnMYstNh0qJ0Pa01uYr6zLBQOY-] disk not present in database

Submit result: 6VnMYstNh0qJ0Pa01uYr6zLBQOY- has been uploaded




百度下载:

游客,本帖隐藏的内容需要积分高于 3000 才可浏览,您当前积分为 0




评分

参与人数 1CD +400 收起 理由
最终之战 + 400 感谢分享资源,CD包因你而精彩.

查看全部评分





BN原抓:Matzka 玛斯卡《Station》/整轨WAV/BD
懒猫原抓:茶凉粉《感谢好时光》2017 WAV+CUE/百度云
 成长值: 34710

1万

主题

2万

帖子

77万

积分

音乐掌门人

Rank: 20Rank: 20Rank: 20Rank: 20Rank: 20

积分
772231

名人勋章社区QQ达人分享勋章精华帖达人灌水勋章

发表于 2019-10-7 19:29:45 | 显示全部楼层
an3.jpg

AN1.jpg

AN2.jpg




本人发布的资源,有密码的话都是:www.cdbao.net
关于链接失效的说明(度盘好友分享的说明)
https://www.cdbao.net/thread-117499-1-1.html     
紧急通告:115,快传等网盘取消了分享功能礼包码链接全部失效
https://www.cdbao.net/thread-122759-1-1.html
 成长值: 34710

1万

主题

2万

帖子

77万

积分

音乐掌门人

Rank: 20Rank: 20Rank: 20Rank: 20Rank: 20

积分
772231

名人勋章社区QQ达人分享勋章精华帖达人灌水勋章

发表于 2019-10-8 08:02:57 | 显示全部楼层
帮你编辑了一下帖子!!!

本人发布的资源,有密码的话都是:www.cdbao.net
关于链接失效的说明(度盘好友分享的说明)
https://www.cdbao.net/thread-117499-1-1.html     
紧急通告:115,快传等网盘取消了分享功能礼包码链接全部失效
https://www.cdbao.net/thread-122759-1-1.html

98

主题

518

帖子

5万

积分

天王巨星

Rank: 7Rank: 7Rank: 7

积分
55397
QQ
发表于 2019-10-12 23:47:24 | 显示全部楼层
超爱这个团,残死太有爱了。
过期不补档
 成长值: 1695

2

主题

95

帖子

224

积分

VIP2

Rank: 5Rank: 5

积分
224
发表于 2019-10-14 18:35:41 | 显示全部楼层
高于3000分才能浏览..........
这个屌
您需要登录后才可以回帖 登录 | 注册

本版积分规则

快速回复 返回顶部 返回列表