最近看过此主题的会员

查看: 122|回复: 1

[华语] BN原抓:Matzka 玛斯卡《Station》/整轨WAV/BD

[复制链接]

47

主题

605

帖子

1万

积分

流行教主

Rank: 6Rank: 6

积分
11926

社区QQ达人

发表于 2019-10-1 18:28:55 | 显示全部楼层 |阅读模式

注册会员,获得无损资源下载地址,享受高品质音乐。

您需要 登录 才可以下载或查看,没有帐号?注册

x
封面.jpg
语种:国语
发行日期:2018.04.26
发行公司:索尼音乐


2018 Matzka 全新专辑
《Matzka Station 第二关》即将登场

第一关 东南美 第二关 Matzka Station Matzka
用游戏的思维挑战生活的难关,突破常规、创建关卡再使大绝破关
无论音乐.事业.感情.家庭.破关就是他的成长方式

来自台湾台东排湾族的 Matzka,天生血液中就是浓浓雷鬼基因,从创作、演奏到唱腔,只要听到他的音乐,就能一秒抵达心中所向往的南洋小岛,看着纯白的沙滩、吹着海风、跟着雷鬼乐轻松摇摆。

创作超过十年,Matzka的第一张专辑《东南美Vu Vu Reggae》讲述人与大自然间的深刻连结,而在创作第二张专辑时,他已经是个娶了老婆还生了两个女儿的男人了,才惊觉女人才是宇宙最大的谜团!于是他将生活中关于女性角色所有的迷思写进了专辑,用音乐带领全天下男人,进入《Matzka Station 第二关》,一起勇闯美人关。

曲目:
1 姑娘
2 黑老爹
3 早晨瑜珈 (feat. 小S)
4 死性不改
5 红太阳
6 紧握你的温柔
7 My Wave
8 巧克力蛋糕
9 I'm Sorry
10 Melevlev 玛勒芙勒芙
11 最短的歌


*******************************分隔线*************************************
Exact Audio Copy V1.2 from 12. August 2016


EAC 抓取日志文件从4. 九月 2019, 12:08


Various / Matzka Station 第二關


使用驱动器  :PLDS    DVDROM DH16D6SH   Adapter: 1  ID: 0


读取模式      : 可靠Secure
使用精确流     : 是
清空音频缓存    : 是
使用 C2 指示器 : 否


读取偏移校正:               : 6
读取 Lead-In 和 Lead-Out : 否
用静音填充抓取中丢失偏移的采样       : 是
去除首尾静音块               : 否
在CRC 计算中使用了空样本       : 是
已用接口                  : Win NT 及 2000 本地 Win32 接口


所用输出模式: : 内部 WAV 函数
样本格式    : 44.100 Hz; 16 Bit; 立体声

已抓取 CD 的 TOC


     音轨 |    起始    |    长度    |  起始扇区  |  结束扇区  
    --------------------------------------------
      1 |  0:00.00 |  4:04.71 |      0 |  18370
      2 |  4:04.71 |  3:42.16 |  18371 |  35036
      3 |  7:47.12 |  4:06.15 |  35037 |  53501
      4 | 11:53.27 |  3:43.18 |  53502 |  70244
      5 | 15:36.45 |  3:37.73 |  70245 |  86592
      6 | 19:14.43 |  5:03.68 |  86593 | 109385
      7 | 24:18.36 |  4:32.73 | 109386 | 129858
      8 | 28:51.34 |  3:29.74 | 129859 | 145607
      9 | 32:21.33 |  4:37.20 | 145608 | 166402
     10 | 36:58.53 |  4:53.43 | 166403 | 188420
     11 | 41:52.21 |  0:30.26 | 188421 | 190696

范围状态及错误


已选择范围


     文件名 E:\自购CD\Matzka - Station\Various - Matzka Station 第二關.wav


     峰值电平 100.0 %
     抓取速度 5.4 X
     范围质量 100.0 %
     复制 CRC B690FD68
     复制成功


没有错误发生



AccurateRip 摘要

音轨  1  在数据库中不存在
音轨  2  在数据库中不存在
音轨  3  在数据库中不存在
音轨  4  在数据库中不存在
音轨  5  在数据库中不存在
音轨  6  在数据库中不存在
音轨  7  在数据库中不存在
音轨  8  在数据库中不存在
音轨  9  在数据库中不存在
音轨 10  在数据库中不存在
音轨 11  在数据库中不存在

没有任何音轨在 AccurateRip 数据库中有记录


状态报告结尾


---- CUETools DB Plugin V2.1.6


[CTDB TOCID: asIk4s96dkKrqYm6PmS7mAGNrX8-] found
Submit result: asIk4s96dkKrqYm6PmS7mAGNrX8- has been confirmed
Track | CTDB Status
  1   | (2/2) Accurately ripped
  2   | (2/2) Accurately ripped
  3   | (2/2) Accurately ripped
  4   | (2/2) Accurately ripped
  5   | (2/2) Accurately ripped
  6   | (2/2) Accurately ripped
  7   | (2/2) Accurately ripped
  8   | (2/2) Accurately ripped
  9   | (2/2) Accurately ripped
10   | (2/2) Accurately ripped
11   | (2/2) Accurately ripped

==== 记录校验日志 0146FAA09576D277BFFD783D77858DF9266E20C5C7F153D031747A7073A93A20 ====



*******************************分隔线*************************************
游客,如果您要查看本帖隐藏内容请回复

评分

参与人数 1CD +240 收起 理由
最终之战 + 240 感谢分享资源,CD包因你而精彩.

查看全部评分





懒猫原抓:清醒《明日的荣耀》2007 WAV+CUE/百度云
原抓:暗狱戮尸《物极必反》2019/WAV/BD

111

主题

1706

帖子

4万

积分

天王巨星

Rank: 7Rank: 7Rank: 7

积分
49194

社区QQ达人

发表于 2019-10-1 21:58:07 | 显示全部楼层
不错的一只台湾雷鬼!主唱声线很特色!谢谢楼主!其他几张有WAV版吗?是否可以分享下
您需要登录后才可以回帖 登录 | 注册

本版积分规则

快速回复 返回顶部 返回列表