查看: 252|回复: 6

Édouard Lalo《Concerto russe; Piano Concerto...》2012/FLAC/BD

[复制链接]
 成长值: 35025

1万

主题

2万

帖子

77万

积分

音乐掌门人

Rank: 20Rank: 20Rank: 20Rank: 20Rank: 20

积分
774012

名人勋章社区QQ达人分享勋章精华帖达人灌水勋章

发表于 2019-9-23 09:28:40 | 显示全部楼层 |阅读模式

注册会员,获得无损资源下载地址,享受高品质音乐。

您需要 登录 才可以下载或查看,没有帐号?注册

x
p-01.jpg
Édouard Lalo - Concerto russe; Piano Concerto; Romance-Serenade; Fantaisie-ballet - Jean-Jacques Kantorow, Pierre-Alain Volondat; Tapiola Sinfonietta, Kees Bakels

inlay1.jpg inlay2.jpg
p-02-03.jpg
p-04-05.jpg
p-06-07.jpg
p-08-09.jpg
p-10-11.jpg
p-12-13.jpg
p-14-15.jpg
p-16-17.jpg
p-18-19.jpg
p-20-21.jpg
p-22-23.jpg
p-26-27.jpg
p-28-29.jpg
p-30-31.jpg
p-32.jpg

Жанр: Classical
Страна-производитель диска: Sweden
Год издания диска: 2012
Издатель (лейбл): BIS
Номер по каталогу: BIS-SACD-1890
Дата записи: 2011
Аудиокодек: FLAC
Тип рипа: image+.cue
Битрейт аудио: lossless
Продолжительность: 71:36
Источник: собственный рип
Наличие сканов в содержимом раздачи: да

Треклист:

Édouard Lalo (1823-1892)

[1]-[4] Concerto russe for violin and orchestra, Op.29 (1879)
[5] Romance-Sérénade for violin and orchestra (1877)
[6] Fantaisie-ballet for violin and orchestra (1885)
[7] Guitare for violin and orchestra, Op.28 (1880)
[8]-[11] Piano Concerto (1888)

Исполнители:
Jean-Jacques Kantorow violin
Pierre-Alain Volondat piano
Tapiola Sinfonietta
Kees Bakels conductor
=============================
百度下载(阿战音乐仓库)
游客,如果您要查看本帖隐藏内容请回复


p-24-25.jpg




音乐殿堂系列《12CD》APE/BD
管弦乐:Stravinsky《Les Ballets Russes》(Kitayenko,Boulez,Fedoseyev)2CD/BD

本人发布的资源,有密码的话都是:www.cdbao.net
关于链接失效的说明(度盘好友分享的说明)
https://www.cdbao.net/thread-117499-1-1.html     
紧急通告:115,快传等网盘取消了分享功能礼包码链接全部失效
https://www.cdbao.net/thread-122759-1-1.html
 成长值: 35025

1万

主题

2万

帖子

77万

积分

音乐掌门人

Rank: 20Rank: 20Rank: 20Rank: 20Rank: 20

积分
774012

名人勋章社区QQ达人分享勋章精华帖达人灌水勋章

发表于 2019-9-23 09:29:00 | 显示全部楼层
Exact Audio Copy V1.0 beta 3 from 29. August 2011

EAC extraction logfile from 7. January 2013, 15:12

Jean-Jacques Kantorow, Tapiola Sinfonietta, Kees Bakels / Lalo - Concerto russe; Piano Concerto

Used drive  : HL-DT-STDVDRRW GWA-4164B   Adapter: 5  ID: 0

Read mode               : Secure
Utilize accurate stream : Yes
Defeat audio cache      : Yes
Make use of C2 pointers : No

Read offset correction                      : 102
Overread into Lead-In and Lead-Out          : No
Fill up missing offset samples with silence : Yes
Delete leading and trailing silent blocks   : No
Null samples used in CRC calculations       : Yes
Used interface                              : Native Win32 interface for Win NT & 2000

Used output format              : User Defined Encoder
Selected bitrate                : 896 kBit/s
Quality                         : High
Add ID3 tag                     : No
Command line compressor         : C:\Program Files\Exact Audio Copy\FLAC\FLAC.EXE
Additional command line options : -V -8 %source%

TOC of the extracted CD

     Track |   Start  |  Length  | Start sector | End sector
    ---------------------------------------------------------
        1  |  0:00.00 | 12:50.68 |         0    |    57817
        2  | 12:50.68 |  4:26.02 |     57818    |    77769
        3  | 17:16.70 |  4:03.17 |     77770    |    96011
        4  | 21:20.12 |  7:57.04 |     96012    |   131790
        5  | 29:17.16 |  5:53.30 |    131791    |   158295
        6  | 35:10.46 |  9:06.74 |    158296    |   199319
        7  | 44:17.45 |  3:16.68 |    199320    |   214087
        8  | 47:34.38 | 11:20.28 |    214088    |   265115
        9  | 58:54.66 |  6:15.05 |    265116    |   293245
       10  | 65:09.71 |  6:27.00 |    293246    |   322270

Range status and errors

Selected range

     Filename C:\temp\Lalo - Concerto russe; Piano Concerto\Lalo - Concerto russe; Piano Concerto.wav

     Peak level 99.9 %
     Extraction speed 3.1 X
     Range quality 100.0 %
     Test CRC 94BEB54C
     Copy CRC 94BEB54C
     Copy OK

No errors occurred

End of status report

==== Log checksum D7E561839108C07EC785A0C4A4F162F07137D3A95201B038BD0EC3D7C34A2A11 ====



本人发布的资源,有密码的话都是:www.cdbao.net
关于链接失效的说明(度盘好友分享的说明)
https://www.cdbao.net/thread-117499-1-1.html     
紧急通告:115,快传等网盘取消了分享功能礼包码链接全部失效
https://www.cdbao.net/thread-122759-1-1.html

0

主题

310

帖子

563

积分

职业歌手

Rank: 3Rank: 3

积分
563
发表于 2019-9-24 23:57:46 | 显示全部楼层
感谢楼主分享,好专辑,谢谢分享

0

主题

123

帖子

211

积分

乐坛新星

Rank: 2

积分
211
发表于 2019-9-25 10:25:08 | 显示全部楼层
感谢楼主分享,很好。

0

主题

43

帖子

79

积分

新人会员,请认真回复,若恶意回复,直接封号

Rank: 1

积分
79
发表于 2019-10-1 23:43:26 | 显示全部楼层
这个钢琴和小提琴的版本必须下来听听

0

主题

44

帖子

88

积分

新人会员,请认真回复,若恶意回复,直接封号

Rank: 1

积分
88
发表于 2019-10-27 22:04:03 | 显示全部楼层
感谢楼主分享,很好。
nice album
integral

2

主题

681

帖子

912

积分

职业歌手

Rank: 3Rank: 3

积分
912

社区QQ达人

发表于 2019-10-31 09:51:59 | 显示全部楼层
好专辑,谢谢分享!
您需要登录后才可以回帖 登录 | 注册

本版积分规则

快速回复 返回顶部 返回列表