最近看过此主题的会员

查看: 578|回复: 6

[华语] BN原抓:左小祖咒《 美国》/WAV/BD

[复制链接]

37

主题

558

帖子

9666

积分

人气天王

Rank: 5Rank: 5

积分
9666

社区QQ达人

发表于 2018-12-25 15:46:38 | 显示全部楼层 |阅读模式

注册会员,获得无损资源下载地址,享受高品质音乐。

您需要 登录 才可以下载或查看,没有帐号?注册

x
下文选自虾米介绍(文字老不能通过,我发文字截图了):
QQ图片20181225154239.png CCI201812.jpg
CCI2018126.jpg
曲目  · · · · · ·01 云的南方
02 在林中飞过
03 乌兰巴托的夜
04 你的萧声 你的身影
05 醇厚之心/云的南方
06 相信我 没错的
07 512厂
08一颗心//云的南方
09 农夫的天空
10 薄雾
11 我的天啊/云的南方
12 超强薄荷/云的南方
13 泸沽湖情歌
14 拿走的云


********************************************
Exact Audio Copy V1.2 from 12. August 2016

EAC 抓取日志文件从20. 十二月 2018, 16:33

左小祖咒 / 美国 THE U.S.A

使用驱动器  :PLDS    DVDROM DH16D6SH   Adapter: 1  ID: 0

读取模式      : 可靠Secure
使用精确流     : 是
清空音频缓存    : 是
使用 C2 指示器 : 否

读取偏移校正:               : 6
读取 Lead-In 和 Lead-Out : 否
用静音填充抓取中丢失偏移的采样       : 是
去除首尾静音块               : 否
在CRC 计算中使用了空样本       : 是
已用接口                  : Win NT 及 2000 本地 Win32 接口

所用输出模式: : 内部 WAV 函数
样本格式    : 44.100 Hz; 16 Bit; 立体声

已抓取 CD 的 TOC

     音轨 |    起始    |    长度    |  起始扇区  |  结束扇区  
    --------------------------------------------
      1 |  0:00.00 |  3:06.02 |      0 |  13951
      2 |  3:06.02 |  3:56.48 |  13952 |  31699
      3 |  7:02.50 |  4:35.30 |  31700 |  52354
      4 | 11:38.05 |  3:36.44 |  52355 |  68598
      5 | 15:14.49 |  2:34.29 |  68599 |  80177
      6 | 17:49.03 |  0:56.44 |  80178 |  84421
      7 | 18:45.47 |  1:38.69 |  84422 |  91840
      8 | 20:24.41 |  3:09.74 |  91841 | 106089
      9 | 23:34.40 |  3:46.18 | 106090 | 123057
     10 | 27:20.58 |  1:41.68 | 123058 | 130700
     11 | 29:02.51 |  3:44.24 | 130701 | 147524
     12 | 32:47.00 |  8:00.61 | 147525 | 183585
     13 | 40:47.61 |  2:38.14 | 183586 | 195449
     14 | 43:26.00 |  1:49.66 | 195450 | 203690

范围状态及错误

已选择范围

     文件名 E:\自购CD\左小祖咒 - 美国\左小祖咒 - 美国 THE U.S.A.wav

     峰值电平 99.9 %
     抓取速度 2.9 X
     范围质量 100.0 %
     复制 CRC 78746647
     复制成功

没有错误发生

AccurateRip 摘要

音轨  1  在数据库中不存在
音轨  2  在数据库中不存在
音轨  3  在数据库中不存在
音轨  4  在数据库中不存在
音轨  5  在数据库中不存在
音轨  6  在数据库中不存在
音轨  7  在数据库中不存在
音轨  8  在数据库中不存在
音轨  9  在数据库中不存在
音轨 10  在数据库中不存在
音轨 11  在数据库中不存在
音轨 12  在数据库中不存在
音轨 13  在数据库中不存在
音轨 14  在数据库中不存在

没有任何音轨在 AccurateRip 数据库中有记录

状态报告结尾

---- CUETools DB Plugin V2.1.6

[CTDB TOCID: 2ALu6Pf8Zb9Vq526bT5NtnO3Vu4-] found
Submit result: 2ALu6Pf8Zb9Vq526bT5NtnO3Vu4- has been confirmed
Track | CTDB Status
  1   | (3/3) Accurately ripped
  2   | (3/3) Accurately ripped
  3   | (3/3) Accurately ripped
  4   | (3/3) Accurately ripped
  5   | (3/3) Accurately ripped
  6   | (3/3) Accurately ripped
  7   | (3/3) Accurately ripped
  8   | (3/3) Accurately ripped
  9   | (3/3) Accurately ripped
10   | (3/3) Accurately ripped
11   | (3/3) Accurately ripped
12   | (3/3) Accurately ripped
13   | (3/3) Accurately ripped
14   | (3/3) Accurately ripped

==== 记录校验日志 CFC686119A2015514EF855C021C746ED6D4FB62CE2A075A26178930B902D2B8C ====

游客,如果您要查看本帖隐藏内容请回复



评分

参与人数 1CD +240 收起 理由
最终之战 + 240 感谢分享资源,CD包因你而精彩.

查看全部评分





原抓:张惠妹《偷故事的人》台湾首版/大陆没引进/WAV/BD
BN原抓:左小祖咒《最爱》/WAV/BD

111

主题

1667

帖子

4万

积分

天王巨星

Rank: 7Rank: 7Rank: 7

积分
49375

社区QQ达人

发表于 2018-12-25 19:18:51 | 显示全部楼层
乌兰巴托的夜!没说的!!就喜欢这调调呵呵

194

主题

1330

帖子

5万

积分

天王巨星

Rank: 7Rank: 7Rank: 7

积分
53962

社区QQ达人灌水勋章

发表于 2018-12-26 08:56:03 | 显示全部楼层
左老板的纯音乐也很好听

268

主题

1366

帖子

10万

积分

乐坛教父

Rank: 8Rank: 8

积分
102186

社区QQ达人

发表于 2019-1-4 13:52:15 | 显示全部楼层
帮朋友下 多谢

1

主题

82

帖子

150

积分

乐坛新星

Rank: 2

积分
150

社区QQ达人

发表于 2019-1-6 14:00:50 | 显示全部楼层
不错,谢谢楼主分享,下来听听。

28

主题

797

帖子

4万

积分

天王巨星

Rank: 7Rank: 7Rank: 7

积分
42307

社区QQ达人VIP勋章

发表于 2019-1-10 21:26:34 | 显示全部楼层
很多年前第一次听到这个嗓音,欣赏不了,迄今,不能说喜欢,但却一直循环着。。。很美

100

主题

904

帖子

4万

积分

天王巨星

Rank: 7Rank: 7Rank: 7

积分
41771

社区QQ达人

发表于 2019-4-18 21:59:04 | 显示全部楼层
都是经典,下来享受下,感谢分享~!

您需要登录后才可以回帖 登录 | 注册

本版积分规则

快速回复 返回顶部 返回列表