最近看过此主题的会员

查看: 160|回复: 8

电影原声《STAND BY ME》1986/WAV/百度云

[复制链接]

1

主题

65

帖子

243

积分

乐坛新星

Rank: 2

积分
243
发表于 2020-5-10 11:57:38 | 显示全部楼层 |阅读模式

注册会员,获得无损资源下载地址,享受高品质音乐。

您需要 登录 才可以下载或查看,没有帐号?注册

x
1986年电影stand by me原声CD抓轨,集合Buddy Holly、the del vikings等演唱的50、60年代金曲,
最后一首STAND BY ME为Ben E.King经典之作。

cover.jpg


百度盘
游客,如果您要查看本帖隐藏内容请回复


评分

参与人数 1CD +80 收起 理由
最终之战 + 80

查看全部评分





电视原声《我和僵尸有个约会2》FLAC+CUE/百度云
俄罗斯新世纪氛围:Chronos《14CD》FLAC/度盘
 成长值: 38070

1万

主题

2万

帖子

49万

积分

音乐掌门人

Rank: 20Rank: 20Rank: 20Rank: 20Rank: 20

积分
491525

名人勋章社区QQ达人分享勋章精华帖达人灌水勋章

发表于 2020-5-10 13:51:54 | 显示全部楼层
已抓取 CD 的 TOC


     音轨 |    起始    |    长度    |  起始扇区  |  结束扇区  
    --------------------------------------------
      1 |  0:00.00 |  2:10.17 |      0 |   9766
      2 |  2:10.17 |  2:24.55 |   9767 |  20621
      3 |  4:34.72 |  2:40.70 |  20622 |  32691
      4 |  7:15.67 |  2:26.23 |  32692 |  43664
      5 |  9:42.15 |  2:46.72 |  43665 |  56186
      6 | 12:29.12 |  2:11.63 |  56187 |  66074
      7 | 14:41.00 |  1:52.02 |  66075 |  74476
      8 | 16:33.02 |  1:52.05 |  74477 |  82881
      9 | 18:25.07 |  2:15.53 |  82882 |  93059
     10 | 20:40.60 |  2:55.30 |  93060 | 106214




音轨  1


     文件名 C:\temp\01. 未知艺术家 - EVERYDAY.wav


     计时问题 0:01:01
     计时问题 0:01:03 - 0:01:06
     计时问题 0:01:08
     计时问题 0:01:10 - 0:01:12


     峰值电平 73.1 %
     抓取速度 5.2 X
     复制 CRC 82A5124F
     复制结束


音轨  2


     文件名 C:\temp\02. 未知艺术家 - LET THE GOOD TIMES ROLL.wav


     峰值电平 96.9 %
     抓取速度 10.1 X
     复制 CRC 5108D453
     复制成功


音轨  3


     文件名 C:\temp\03. 未知艺术家 - COME GO WITH ME.wav


     峰值电平 87.4 %
     抓取速度 10.8 X
     复制 CRC 41452641
     复制成功


音轨  4


     文件名 C:\temp\04. 未知艺术家 - WHISPERING BELLS.wav


     峰值电平 68.4 %
     抓取速度 11.5 X
     复制 CRC B8DA60EA
     复制成功


音轨  5


     文件名 C:\temp\05. 未知艺术家 - GET A JOB.wav


     峰值电平 61.0 %
     抓取速度 12.1 X
     复制 CRC CB2BC9C3
     复制成功


音轨  6


     文件名 C:\temp\06. 未知艺术家 - LOLLIPOP.wav


     峰值电平 94.6 %
     抓取速度 12.7 X
     复制 CRC DF807EA3
     复制成功


音轨  7


     文件名 C:\temp\07. 未知艺术家 - YAKETY YAK.wav


     峰值电平 75.7 %
     抓取速度 13.1 X
     复制 CRC 32CFCA5D
     复制成功


音轨  8


     文件名 C:\temp\08. 未知艺术家 - GREAT BALLS OF FIRE.wav


     峰值电平 85.0 %
     抓取速度 13.5 X
     复制 CRC 1EEF2F3F
     复制成功


音轨  9


     文件名 C:\temp\09. 未知艺术家 - MR.LEE.wav


     峰值电平 78.9 %
     抓取速度 14.0 X
     复制 CRC 399AADCF
     复制成功


音轨 10


     文件名 C:\temp\10. 未知艺术家 - STAND BY ME.wav


     峰值电平 71.2 %
     抓取速度 14.5 X
     复制 CRC 18A3F81C
     复制成功


没有错误发生


状态报告结尾


---- CUETools DB Plugin V2.1.6


[CTDB TOCID: GZlP1oK3NWFeMxphD_J374GY7B4-] found
Submit result: GZlP1oK3NWFeMxphD_J374GY7B4- has been confirmed
Track | CTDB Status
  1   | (53/56) Accurately ripped
  2   | (56/56) Accurately ripped
  3   | (54/56) Accurately ripped
  4   | (55/56) Accurately ripped
  5   | (54/56) Accurately ripped
  6   | (53/56) Accurately ripped
  7   | (54/56) Accurately ripped
  8   | (55/56) Accurately ripped
  9   | (53/56) Accurately ripped
10   | (54/56) Accurately ripped



本人发布的资源,有密码的话都是:www.cdbao.net
关于链接失效的说明(度盘好友分享的说明)
https://www.cdbao.net/thread-117499-1-1.html     
紧急通告:115,快传等网盘取消了分享功能礼包码链接全部失效
https://www.cdbao.net/thread-122759-1-1.html

0

主题

91

帖子

123

积分

新人会员,请认真回复,若恶意回复,直接封号

Rank: 1

积分
123
发表于 2020-5-10 14:42:41 | 显示全部楼层
很好听的歌,值得收藏。谢谢分享。

1

主题

15

帖子

141

积分

新人会员,请认真回复,若恶意回复,直接封号

Rank: 1

积分
141
发表于 2020-5-10 16:35:27 | 显示全部楼层
谢谢分享资源~~~~
integral

2

主题

1135

帖子

1225

积分

职业歌手

Rank: 3Rank: 3

积分
1225
发表于 2020-5-10 18:35:31 | 显示全部楼层
這部電影我好喜歡

52

主题

733

帖子

1万

积分

流行教主

Rank: 6Rank: 6

积分
13552

社区QQ达人

发表于 2020-5-11 01:26:27 | 显示全部楼层
虽然看不懂英文,但是应该不错,听听,谢谢分享

0

主题

640

帖子

598

积分

职业歌手

Rank: 3Rank: 3

积分
598
发表于 2020-5-11 05:49:56 | 显示全部楼层
THANK YOU SO MUSH FOR THIS SHARE

1

主题

8888

帖子

451

积分

职业歌手

Rank: 3Rank: 3

积分
451
发表于 2020-5-12 14:00:03 | 显示全部楼层
很喜欢的一首歌,谢谢分享好东西!!

1

主题

12

帖子

79

积分

新人会员,请认真回复,若恶意回复,直接封号

Rank: 1

积分
79
发表于 前天 23:57 | 显示全部楼层
感谢楼主分享,看了电影后找过来的

您需要登录后才可以回帖 登录 | 注册

本版积分规则

快速回复 返回顶部 返回列表