最近看过此主题的会员

查看: 7189|回复: 89

Harry Nilsson《Harry》日版 原抓WAV/整轨/快传

[复制链接]

383

主题

671

帖子

4万

积分

音乐制作人

Rank: 12Rank: 12Rank: 12

积分
40430

社区QQ达人

发表于 2015-4-12 20:45:29 | 显示全部楼层 |阅读模式

注册会员,获得无损资源下载地址,享受高品质音乐。

您需要 登录 才可以下载或查看,没有帐号?注册

x
本帖最后由 汉尼拔锟 于 2015-7-6 12:30 编辑

照片_20150412_155039.jpg

很高兴又给大家分享Harry的音乐。这次是Harry在1969年发行的同名专辑《Harry》,一张非常个人化的专辑,描述了他个人的童年、理想及纽约都会底层子弟的生活。

作为出生在NYC贫民区的Harry在这张专辑中演唱了如同大杂烩般的各类风格的歌曲:童谣、乡村、摇摆乐、软摇滚。一个40年代生纽约人所能接触到的所有类型的音乐几乎都能在这张里面找到。

开头一首是在68年写给民谣女生Mary Hopkin的《The Puppy Song》,一首非常好的童谣歌曲,Harry在里面成功模仿了一个10岁男孩子的声音语气,诞生一句经典歌词:Dreams are nothing more than wishes and a wish is just a dream you wish to come true;

第二首讲述了一对老夫妻回忆1944年结婚的场景,对旧时事物的留恋和时光流逝的无奈,美式小调的戏感和歌词流露出的情绪是错位的,但往往人就是对内心感情的抒发就是这样复杂和怪异。

第三首歌,一首简单的歌《打开你的窗》,有很多时候打开窗户深呼吸,到户外放飞风筝就能让你感到大脑多巴胺含量飙升,让你感到毒品、酒精这样的自我摧残所不能带来的幸福感,当然也是很多人做不到的,包括唱作者本人也是。

第四首翻唱Paul Mccartney的《自然之子》,没什么可说的,翻唱精品,披头士曾经表示这是他们最喜欢的翻唱版本。

第五首、第六首出自Bill Martin之手,前者是一首摇摆乐作品,配器让人想到百老汇演出歌曲;后者可以说是专辑的第一个情绪高潮,包含挣扎在社会底层的青年的苦涩与无奈,是我在本专辑最喜欢的歌。

第七首,一首讲述无家可归的女人的歌,一个青春不再、无依无靠、露宿街头的女人回想自己是怎样进入了悲伤绝望境地的思考,但想仅仅是想,歌词中并没有给出答案。有很多时候生活是让你体验的,而不是让你去理解的。

第八首Maybe讲述了一对有了分歧的的情侣,女方指责男方行事幼稚,但男方觉得并不是这样,而是对方可能移情别恋。后半段向对方许诺会爱女方的家人,希望对方知道自己的真情实感,不要离开自己。非常有意思的一首歌,Maybe,一个推测,暗含了可能性,也暗含了不确定性,非常贴切即将告吹的恋情,既包含了悲观情绪,同时暗含了希望。歌词精致爆表,旋律也极其优美,maybe和baby的长拖音把人都唱酥了。

第九首,一首关于在百老汇大道游行的歌曲,不太了解美国纽约在1969发生了啥,歌词看的很模糊,不过这又是一首旋律错位的歌,中间的口哨似乎是一支进行曲。

第十首,我猜向上帝一定在纽约。Harry的代表作,当年是Harry给《午夜牛郎》创作的,结果被John Barry毙掉了,让Harry演唱了另一首我行我素的歌《Everybody talking》 在1970年被别的电影收做主题曲。

第十一首,一首好听的软摇滚,里面用了一句经典的rain rain go away,come again another day,是适合孩子听的摇滚。

第十二首翻唱的Mister bojangles,是本专辑的第二大情绪高潮。又是成功的翻唱,在harry很多精选辑里都有收录。讲述一个年老的混迹于下级酒馆的舞者bojangles在拘留所里遇到了歌者,展示自己年轻时的风采和与自己已死的小狗在一起的过往和现在的穷困潦倒,正好与第一首歌呼应起来了。这首歌暗含的悲伤与无奈是非常浓重的。第二喜欢的歌。

最后一首,又是一首美国童谣感的歌曲,Randy Newman的歌曲,专辑在结尾又回到了童年的回忆漩涡中。

这张专辑也是Harry第一次登上公示牌排行,最高位次120位,harry在这张专辑达到了生涯的第一个高峰,将自己独特的假声发挥到了极致,很多歌曲都有他神奇清澈的高音,一点遗憾的是这样的专辑只出了一张,以后就转型了。
  1. Exact Audio Copy V1.0 beta 4 from 7. December 2014

  2. EAC 抓取日志文件从12. 四月 2015, 14:31

  3. Harry Nilsson  / Harry

  4. 使用驱动器  :OPTIARC DVD-ROM DDU1681S   Adapter: 1  ID: 0

  5. 读取模式      : 可靠Secure
  6. 使用精确流     : 是
  7. 清空音频缓存    : 是
  8. 使用 C2 指示器 : 否

  9. 读取偏移校正:               : 6
  10. 读取 Lead-In 和 Lead-Out : 否
  11. 用静音填充抓取中丢失偏移的采样       : 是
  12. 去除首尾静音块               : 否
  13. 在CRC 计算中使用了空样本       : 是
  14. 已用接口                  : Win NT 及 2000 本地 Win32 接口

  15. 所用输出模式: : 内部 WAV 函数
  16. 样本格式    : 44.100 Hz; 16 Bit; 立体声


  17. 已抓取 CD 的 TOC

  18.      音轨 |    起始    |    长度    |  起始扇区  |  结束扇区  
  19.     --------------------------------------------
  20.       1 |  0:00.37 |  2:44.08 |     37 |  12344
  21.       2 |  2:44.45 |  2:47.10 |  12345 |  24879
  22.       3 |  5:31.55 |  2:08.52 |  24880 |  34531
  23.       4 |  7:40.32 |  2:45.55 |  34532 |  46961
  24.       5 | 10:26.12 |  2:16.58 |  46962 |  57219
  25.       6 | 12:42.70 |  2:33.10 |  57220 |  68704
  26.       7 | 15:16.05 |  2:16.12 |  68705 |  78916
  27.       8 | 17:32.17 |  3:10.48 |  78917 |  93214
  28.       9 | 20:42.65 |  1:06.72 |  93215 |  98236
  29.      10 | 21:49.62 |  2:45.40 |  98237 | 110651
  30.      11 | 24:35.27 |  2:50.03 | 110652 | 123404
  31.      12 | 27:25.30 |  3:58.37 | 123405 | 141291
  32.      13 | 31:23.67 |  2:47.48 | 141292 | 153864


  33. 范围状态及错误

  34. 已选择范围

  35.      文件名 F:\原抓\Harry Nilsson  - Harry\Harry Nilsson  - Harry.wav

  36.      峰值电平 83.9 %
  37.      抓取速度 3.7 X
  38.      范围质量 100.0 %
  39.      测试 CRC 577A9532
  40.      复制 CRC 577A9532
  41.      复制成功

  42. 没有错误发生


  43. AccurateRip 摘要

  44. 音轨  1  精确地校准抓取  2)  [36E52657]  (AR v1)
  45. 音轨  2  精确地校准抓取  2)  [00C2B829]  (AR v1)
  46. 音轨  3  精确地校准抓取  2)  [3F38F1F4]  (AR v1)
  47. 音轨  4  精确地校准抓取  2)  [36BB20F0]  (AR v1)
  48. 音轨  5  精确地校准抓取  2)  [E63F0637]  (AR v1)
  49. 音轨  6  精确地校准抓取  2)  [97A266E6]  (AR v1)
  50. 音轨  7  精确地校准抓取  2)  [152E12B2]  (AR v1)
  51. 音轨  8  精确地校准抓取  2)  [CC2024C4]  (AR v1)
  52. 音轨  9  精确地校准抓取  2)  [175DE7E9]  (AR v1)
  53. 音轨 10  精确地校准抓取  2)  [CAF3EB97]  (AR v1)
  54. 音轨 11  精确地校准抓取  2)  [7ECFE6BB]  (AR v1)
  55. 音轨 12  精确地校准抓取  2)  [8E8A6606]  (AR v1)
  56. 音轨 13  精确地校准抓取  2)  [1334B432]  (AR v1)

  57. 所有音轨精确校准抓取

  58. 状态报告结尾

  59. ---- CUETools DB Plugin V2.1.4

  60. [CTDB TOCID: mqiy1Bk0MaLKwWTBBJNlKZKMhFs-] database access error: 操作超时


  61. ==== 记录校验日志 DB425F8B2D8079C5506283DEC1C7A7DBF567B8A0BC6F12281F702082C4B9F93A ====
复制代码




Puppy Song

Nobody Cares About the Railroads Anymore

Open Your Window

Mother Nature's Son

Fairfax Rag

City Life

Mournin' Glory Story

Maybe

Marchin' Down Broadway

I Guess the Lord Must Be in New York City

Rainmaker

Mr. Bojangles

Simon Smith and the Amazing Dancing Bear

下载地址
游客,如果您要查看本帖隐藏内容请回复








Bee Gees《In The Mood Of Love》2015/FLAC/BD
高品质【TAS】绝对的声音-The Absolute Sound 2011 dff分轨360盘

相关帖子

0

主题

1286

帖子

1978

积分

当红偶像

Rank: 4

积分
1978
发表于 2015-4-13 12:44:43 | 显示全部楼层
试听非常棒!非常不错的节奏!多谢分享!

0

主题

100

帖子

627

积分

职业歌手

Rank: 3Rank: 3

积分
627

社区QQ达人

发表于 2015-4-14 18:56:48 | 显示全部楼层
感谢楼主分享,这么好的音乐,真是很难寻觅!

0

主题

621

帖子

789

积分

职业歌手

Rank: 3Rank: 3

积分
789
发表于 2015-4-14 19:27:34 | 显示全部楼层
版主的介绍非常详细,多谢分享!

0

主题

100

帖子

627

积分

职业歌手

Rank: 3Rank: 3

积分
627

社区QQ达人

发表于 2015-4-15 18:17:54 | 显示全部楼层
非常感谢楼主无私分享,谢谢!

0

主题

118

帖子

201

积分

乐坛新星

Rank: 2

积分
201
发表于 2015-4-23 12:03:47 | 显示全部楼层

对六十年代的音乐非常者迷。

5

主题

43

帖子

147

积分

新人会员,请认真回复,若恶意回复,直接封号

Rank: 1

积分
147

社区QQ达人

发表于 2015-4-24 13:01:32 | 显示全部楼层
本帖最后由 nc7011 于 2015-4-25 17:45 编辑

这首歌真的特别好听 是早期比较好的几首 不过日版好像多了一些歌

integral

0

主题

15

帖子

571

积分

职业歌手

Rank: 3Rank: 3

积分
571
发表于 2015-4-25 18:14:27 | 显示全部楼层
版主的介绍非常详细,是一张非常棒的碟

0

主题

8

帖子

73

积分

新人会员,请认真回复,若恶意回复,直接封号

Rank: 1

积分
73
发表于 2015-6-4 15:06:07 | 显示全部楼层
szguman 该用户已被删除
发表于 2015-6-7 13:12:10 | 显示全部楼层
感谢楼主分享,这么好的音乐,真是非常难得阿!

0

主题

13

帖子

82

积分

新人会员,请认真回复,若恶意回复,直接封号

Rank: 1

积分
82
发表于 2015-7-10 16:54:48 | 显示全部楼层
帅呆了~~~~~~~~~~~~~~~~~~~~~~~~~~~~~~~~

0

主题

14

帖子

70

积分

新人会员,请认真回复,若恶意回复,直接封号

Rank: 1

积分
70
发表于 2015-7-13 00:24:57 | 显示全部楼层
感谢楼主的分享 顶起 顶起   

0

主题

11

帖子

66

积分

新人会员,请认真回复,若恶意回复,直接封号

Rank: 1

积分
66
发表于 2015-8-31 01:29:37 | 显示全部楼层
如果可以不失望,希望我不是在写一堆废话。

0

主题

71

帖子

91

积分

新人会员,请认真回复,若恶意回复,直接封号

Rank: 1

积分
91

社区QQ达人

发表于 2015-9-4 14:37:53 | 显示全部楼层
好东西,听听,谢了哈                           

0

主题

58

帖子

60

积分

新人会员,请认真回复,若恶意回复,直接封号

Rank: 1

积分
60
发表于 2015-9-17 18:03:45 | 显示全部楼层
试听很不错, 比较感兴趣,感谢分享。
您需要登录后才可以回帖 登录 | 注册

本版积分规则

快速回复 返回顶部 返回列表