最近看过此主题的会员

查看: 87|回复: 0

[LIVE] Camila Cabello • Havana (Latin American Music Awards) [2017, Pop, HDTV, 1080i]

[复制链接]
 成长值: 25260

9039

主题

1万

帖子

40万

积分

音乐掌门人

Rank: 20Rank: 20Rank: 20Rank: 20Rank: 20

积分
403284

名人勋章社区QQ达人分享勋章精华帖达人灌水勋章

发表于 2018-1-14 12:20:08 | 显示全部楼层 |阅读模式

注册会员,获得无损资源下载地址,享受高品质音乐。

您需要 登录 才可以下载或查看,没有帐号?注册

x
thumbs20180114105714.jpg
Жанр: Pop
Продолжительность: 00:03:19
Год выпуска: 2017
Качество: HDTV
Разрешение видео/развертка: 1080i
Контейнер: MKV
Видео кодек: H.264
Аудио кодек: MP2
Видео: MPEG4 Video (H264) 1920x1080 29.97fps 30.8 Mb/s
Аудио: MPEG Audio 48000Hz stereo 384kbps
_0c23a8cab605cafb20d984c061e72df2.jpg
_a240e78745e30b384b45fa21d48db3e3.jpg
32ef3dac59e13bb05ad4cfb585bdc837.jpg
70ba6c6b31ed7876e81c1aa23268ed98.jpg
910b2ce6a7e964359a1bb6c726cafa72.jpg
General
Unique ID                      : 51544623346078283329848209212336882661 (0x26C72223B688201A99D43DA274F1C3E5)
Complete name                  : M:\The Latin American Music Awards 2017\Camila Cabello - Havana - The Latin American Music Awards 2017.mkv
Format                         : Matroska
Format version                 : Version 2
File size                      : 757 MiB
Duration                       : 3 min 19 s
Overall bit rate               : 31.9 Mb/s
Writing application            : Lavf54.63.104
Writing library                : Lavf54.63.104

Video
ID                             : 1
Format                         : AVC
Format/Info                    : Advanced Video Codec
Format profile                 : [email protected]
Format settings, CABAC         : Yes
Format settings, RefFrames     : 4 frames
Codec ID                       : V_MPEG4/ISO/AVC
Duration                       : 3 min 19 s
Bit rate                       : 30.8 Mb/s
Width                          : 1 920 pixels
Height                         : 1 080 pixels
Display aspect ratio           : 16:9
Frame rate mode                : Constant
Frame rate                     : 29.970 (29970/1000) FPS
Original frame rate            : 29.970 (30000/1001) FPS
Color space                    : YUV
Chroma subsampling             : 4:2:0
Bit depth                      : 8 bits
Scan type                      : Interlaced
Scan type, store method        : Separated fields
Scan order                     : Top Field First
Bits/(Pixel*Frame)             : 0.496
Stream size                    : 733 MiB (97%)
Default                        : No
Forced                         : No
Color range                    : Limited
Color primaries                : BT.709
Transfer characteristics       : BT.709
Matrix coefficients            : BT.709

Audio
ID                             : 2
Format                         : MPEG Audio
Format version                 : Version 1
Format profile                 : Layer 2
Codec ID                       : A_MPEG/L2
Codec ID/Hint                  : MP2
Duration                       : 3 min 19 s
Bit rate mode                  : Constant
Bit rate                       : 384 kb/s
Channel(s)                     : 2 channels
Sampling rate                  : 48.0 kHz
Compression mode               : Lossy
Stream size                    : 9.13 MiB (1%)
Language                       : English
Default                        : Yes
Forced                         : No

==========================
百度下载(阿战无损存储)
游客,如果您要查看本帖隐藏内容请回复



上一篇:八三夭+郑秀文 - 眉飞色舞PLUS - MP4 - 1080P - 88M - BD
下一篇:Camila Cabello • Havana [2017, Pop, WebDL, 1080p]

本人发布的资源,有密码的话都是:www.cdbao.net
关于链接失效的说明(度盘好友分享的说明)
http://www.cdbao.net/thread-117499-1-1.html     
紧急通告:115,快传等网盘取消了分享功能礼包码链接全部失效
http://www.cdbao.net/thread-122759-1-1.html
您需要登录后才可以回帖 登录 | 注册

本版积分规则

快速回复 返回顶部 返回列表