最近看过此主题的会员

查看: 125|回复: 5

散碟原抓《动画基地》CD 梶浦由记 the best WAV/分轨/度盘

[复制链接]
 成长值: 5010

229

主题

1161

帖子

5万

积分

VIP4

Rank: 7Rank: 7Rank: 7

积分
59130
发表于 7 天前 | 显示全部楼层 |阅读模式

注册会员,获得无损资源下载地址,享受高品质音乐。

您需要 登录 才可以下载或查看,没有帐号?注册

x
本帖最后由 龙王机 于 2017-11-14 18:28 编辑

IMG_20171114_180246_1.jpg
不得不说的前言:
咳咳,各位,我把《动画基地》的碟子翻出来整理了好几天,但是,还是不全!特别是给的VCD和DVD,好多都已经找不到了,所以,我就只发CD喽。另外,杂志本体也被我给卖了,好在歌词本还留着,所以抓下来的音轨歌名作品什么的我就一切以歌词本为准啦。发CD的时候我尽量按照购买时的日期顺序来,如果中间有搞错的地方,还请大家原谅啦!最后,如有链接或解压方面的错误,私信我,我会尽快修正的,解压密码均为:此资源来自于CD包音乐论坛

梶浦由记 THE BEST:
01 瞳孔中的碎片---TV动画 Madlax 片头歌
02 我在这里---TV动画 Madlax 插曲
03 克洛耶的主题---TV动画 Noir BGM
04 打开心扉---TV动画 骇客时空 插曲
05 Jr.---PS2游戏 Xenosaga II 善恶之彼岸 未收录曲
06 为我歌唱---TV动画 Noir 插曲
07 Eatman的主题---TV动画 Eatman BGM
08 迷途的小孩---TV动画 骇客时空 插曲
09 黄昏之匙---TV动画 骇客时空 插曲
10 温柔的黎明---TV动画 骇客时空 片尾歌
11 科西嘉走廊---TV动画 Noir BGM
12 限界---OVA动画 .Hack liminality 插曲
13 甜蜜的歌---PS2游戏 Xenosaga II 善恶之彼岸 片尾歌
14 幻想---专辑 Fiction 主打歌
15 恭介 No.1---剧场版动画 新橙路·那个夏天的故事 BGM
16 尽管我们曾在一起---TV动画 机动战士高达SEED 第一季片尾歌
17 晓之车---TV动画 机动战士高达SEED 插曲

CD链接:
游客,如果您要查看本帖隐藏内容请回复

密码:
游客,如果您要查看本帖隐藏内容请回复



评分

参与人数 1CD +240 收起 理由
最终之战 + 240 感谢分享资源,CD包因你而精彩.

查看全部评分




上一篇:散碟原抓《动画基地》CD 肆之卷 WAV/分轨/度盘
下一篇:散碟原抓《动画基地》CD 陆之卷 WAV/分轨/度盘
 成长值: 5010

229

主题

1161

帖子

5万

积分

VIP4

Rank: 7Rank: 7Rank: 7

积分
59130
发表于 7 天前 | 显示全部楼层
Exact Audio Copy V1.1 from 23. June 2015

EAC 抓取日志文件从13. 十一月 2017, 14:33

未知艺术家 / 未知标题

使用驱动器  :SONY    CD-RW  CRX230E   Adapter: 1  ID: 2

读取模式      : 可靠Secure
使用精确流     : 是
清空音频缓存    : 是
使用 C2 指示器 : 是

读取偏移校正:               : 6
读取 Lead-In 和 Lead-Out : 否
用静音填充抓取中丢失偏移的采样       : 是
去除首尾静音块               : 否
在CRC 计算中使用了空样本       : 是
已用接口                  : Win NT 及 2000 本地 Win32 接口
间隙处理                  : 没检测到,因此追加到上一曲目

所用输出模式: : 内部 WAV 函数
样本格式    : 44.100 Hz; 16 Bit; 立体声


已抓取 CD 的 TOC

     音轨 |    起始    |    长度    |  起始扇区  |  结束扇区  
    --------------------------------------------
      1 |  0:00.00 |  4:07.63 |      0 |  18587
      2 |  4:07.63 |  5:05.00 |  18588 |  41462
      3 |  9:12.63 |  2:28.17 |  41463 |  52579
      4 | 11:41.05 |  4:40.64 |  52580 |  73643
      5 | 16:21.69 |  3:28.52 |  73644 |  89295
      6 | 19:50.46 |  3:13.10 |  89296 | 103780
      7 | 23:03.56 |  2:08.36 | 103781 | 113416
      8 | 25:12.17 |  2:49.28 | 113417 | 126119
      9 | 28:01.45 |  3:51.03 | 126120 | 143447
     10 | 31:52.48 |  5:12.55 | 143448 | 166902
     11 | 37:05.28 |  3:51.54 | 166903 | 184281
     12 | 40:57.07 |  4:18.19 | 184282 | 203650
     13 | 45:15.26 |  5:35.23 | 203651 | 228798
     14 | 50:50.49 |  4:10.08 | 228799 | 247556
     15 | 55:00.57 |  3:50.00 | 247557 | 264806
     16 | 58:50.57 |  4:50.74 | 264807 | 286630
     17 | 63:41.56 |  5:02.71 | 286631 | 309351


音轨  1

     文件名 K:\音乐\动画基地\第12期\BEST\01 音轨01 - 未知艺术家.wav

     峰值电平 88.1 %
     抓取速度 1.5 X
     音轨质量 100.0 %
     复制 CRC 4EA65AB8
     音轨在 AccurateRip 数据库中无记录
     复制成功

音轨  2

     文件名 K:\音乐\动画基地\第12期\BEST\02 音轨02 - 未知艺术家.wav

     峰值电平 95.5 %
     抓取速度 1.6 X
     音轨质量 100.0 %
     复制 CRC CEDADB40
     音轨在 AccurateRip 数据库中无记录
     复制成功

音轨  3

     文件名 K:\音乐\动画基地\第12期\BEST\03 音轨03 - 未知艺术家.wav

     峰值电平 100.0 %
     抓取速度 1.3 X
     音轨质量 100.0 %
     复制 CRC CC95D064
     音轨在 AccurateRip 数据库中无记录
     复制成功

音轨  4

     文件名 K:\音乐\动画基地\第12期\BEST\04 音轨04 - 未知艺术家.wav

     峰值电平 100.0 %
     抓取速度 1.5 X
     音轨质量 100.0 %
     复制 CRC A94C4D38
     音轨在 AccurateRip 数据库中无记录
     复制成功

音轨  5

     文件名 K:\音乐\动画基地\第12期\BEST\05 音轨05 - 未知艺术家.wav

     峰值电平 92.2 %
     抓取速度 1.5 X
     音轨质量 100.0 %
     复制 CRC 7DFF8CCB
     音轨在 AccurateRip 数据库中无记录
     复制成功

音轨  6

     文件名 K:\音乐\动画基地\第12期\BEST\06 音轨06 - 未知艺术家.wav

     峰值电平 100.0 %
     抓取速度 1.4 X
     音轨质量 100.0 %
     复制 CRC 86AF518B
     音轨在 AccurateRip 数据库中无记录
     复制成功

音轨  7

     文件名 K:\音乐\动画基地\第12期\BEST\07 音轨07 - 未知艺术家.wav

     峰值电平 100.0 %
     抓取速度 1.3 X
     音轨质量 100.0 %
     复制 CRC 7D172E57
     音轨在 AccurateRip 数据库中无记录
     复制成功

音轨  8

     文件名 K:\音乐\动画基地\第12期\BEST\08 音轨08 - 未知艺术家.wav

     峰值电平 100.0 %
     抓取速度 1.4 X
     音轨质量 100.0 %
     复制 CRC C1B889DB
     音轨在 AccurateRip 数据库中无记录
     复制成功

音轨  9

     文件名 K:\音乐\动画基地\第12期\BEST\09 音轨09 - 未知艺术家.wav

     峰值电平 100.0 %
     抓取速度 1.2 X
     音轨质量 99.9 %
     复制 CRC 73BE0B74
     音轨在 AccurateRip 数据库中无记录
     复制成功

音轨 10

     文件名 K:\音乐\动画基地\第12期\BEST\10 音轨10 - 未知艺术家.wav

     峰值电平 84.1 %
     抓取速度 1.6 X
     音轨质量 100.0 %
     复制 CRC ED45525C
     音轨在 AccurateRip 数据库中无记录
     复制成功

音轨 11

     文件名 K:\音乐\动画基地\第12期\BEST\11 音轨11 - 未知艺术家.wav

     峰值电平 100.0 %
     抓取速度 1.5 X
     音轨质量 100.0 %
     复制 CRC 96041740
     音轨在 AccurateRip 数据库中无记录
     复制成功

音轨 12

     文件名 K:\音乐\动画基地\第12期\BEST\12 音轨12 - 未知艺术家.wav

     峰值电平 100.0 %
     抓取速度 1.5 X
     音轨质量 100.0 %
     复制 CRC 081545D9
     音轨在 AccurateRip 数据库中无记录
     复制成功

音轨 13

     文件名 K:\音乐\动画基地\第12期\BEST\13 音轨13 - 未知艺术家.wav

     峰值电平 98.8 %
     抓取速度 1.6 X
     音轨质量 100.0 %
     复制 CRC 920C8C20
     音轨在 AccurateRip 数据库中无记录
     复制成功

音轨 14

     文件名 K:\音乐\动画基地\第12期\BEST\14 音轨14 - 未知艺术家.wav

     峰值电平 100.0 %
     抓取速度 1.5 X
     音轨质量 100.0 %
     复制 CRC 1F54753F
     音轨在 AccurateRip 数据库中无记录
     复制成功

音轨 15

     文件名 K:\音乐\动画基地\第12期\BEST\15 音轨15 - 未知艺术家.wav

     峰值电平 100.0 %
     抓取速度 1.5 X
     音轨质量 100.0 %
     复制 CRC F3E9BA48
     音轨在 AccurateRip 数据库中无记录
     复制成功

音轨 16

     文件名 K:\音乐\动画基地\第12期\BEST\16 音轨16 - 未知艺术家.wav

     峰值电平 87.0 %
     抓取速度 1.6 X
     音轨质量 100.0 %
     复制 CRC 4E973540
     音轨在 AccurateRip 数据库中无记录
     复制成功

音轨 17

     文件名 K:\音乐\动画基地\第12期\BEST\17 音轨17 - 未知艺术家.wav

     峰值电平 89.0 %
     抓取速度 1.6 X
     音轨质量 100.0 %
     复制 CRC A4694237
     音轨在 AccurateRip 数据库中无记录
     复制成功


没有任何音轨在 AccurateRip 数据库中有记录

没有错误发生

状态报告结尾

---- CUETools DB Plugin V2.1.6

[CTDB TOCID: K24ec08Lm79KYt12AURtH26g.XE-] database access error: XML 文档(1, 1)中有错误。

0

主题

174

帖子

308

积分

乐坛新星

Rank: 2

积分
308

社区QQ达人

发表于 7 天前 | 显示全部楼层
可以试听下  谢谢分享

0

主题

16

帖子

72

积分

新人会员,请认真回复,若恶意回复,直接封号

Rank: 1

积分
72
发表于 6 天前 | 显示全部楼层

可以试听下  谢谢分享

1

主题

844

帖子

2472

积分

当红偶像

Rank: 4

积分
2472

社区QQ达人

发表于 6 天前 | 显示全部楼层
好多都没有听过名字,下载下来听听,对动漫一直很好感

0

主题

76

帖子

147

积分

新人会员,请认真回复,若恶意回复,直接封号

Rank: 1

积分
147
发表于 3 天前 | 显示全部楼层
谢谢楼主分享~~~~
您需要登录后才可以回帖 登录 | 注册

本版积分规则

快速回复 返回顶部 返回列表