最近看过此主题的会员

查看: 82|回复: 3

散碟原抓《动画基地》CD 肆之卷 WAV/分轨/度盘

[复制链接]
 成长值: 5010

229

主题

1161

帖子

5万

积分

VIP4

Rank: 7Rank: 7Rank: 7

积分
59130
发表于 2017-11-13 20:56:59 | 显示全部楼层 |阅读模式

注册会员,获得无损资源下载地址,享受高品质音乐。

您需要 登录 才可以下载或查看,没有帐号?注册

x
IMG_20171107_183718_1.jpg
不得不说的前言:
咳咳,各位,我把《动画基地》的碟子翻出来整理了好几天,但是,还是不全!特别是给的VCD和DVD,好多都已经找不到了,所以,我就只发CD喽。另外,杂志本体也被我给卖了,好在歌词本还留着,所以抓下来的音轨歌名作品什么的我就一切以歌词本为准啦。发CD的时候我尽量按照购买时的日期顺序来,如果中间有搞错的地方,还请大家原谅啦!最后,如有链接或解压方面的错误,私信我,我会尽快修正的,解压密码均为:此资源来自于CD包音乐论坛

肆之卷:
01 幻景子守歌---PC游戏 Shuffle 主题歌
02 驱壳中的生命---TV动画 攻壳机动队GIG 插曲
03 空气与星辰---TV动画 地球少女阿周那 印象歌
04 就在此刻---TV动画 Madlax 插曲
05 曾经在一起·交响乐版---交响乐 机动战士高达SEED 第八章
06 愿望---TV动画 忘却的旋律 片头歌
07 掌心的光芒---TV动画 忘却的旋律 片尾歌
08 明日的蓝色羽翼---TV动画 光与水的达芙妮 片头歌
09 多愁善感---TV动画 美鸟伴身边 片头歌
10 只要再多一点......---TV动画 美鸟伴身边 片尾歌
11 圣母玛利亚---TV动画 圣母玛利亚在上 BGM
12 自在---TV动画 爆裂天使 片头歌
13 心乱(吉他独唱版)---TV动画 君望永远 插曲、PS2版片头歌
14 火鸟---TV动画 火鸟 片尾歌
15 漫步森林---TV动画 罗宾汉的大冒险 片头歌

CD链接:
游客,如果您要查看本帖隐藏内容请回复

密码:
游客,如果您要查看本帖隐藏内容请回复



评分

参与人数 1CD +240 收起 理由
最终之战 + 240 感谢分享资源,CD包因你而精彩.

查看全部评分




上一篇:散碟原抓《动画基地》CD 叁之卷 WAV/分轨/度盘
下一篇:散碟原抓《动画基地》CD 梶浦由记 the best WAV/分轨/度盘
 成长值: 5010

229

主题

1161

帖子

5万

积分

VIP4

Rank: 7Rank: 7Rank: 7

积分
59130
发表于 2017-11-13 20:57:16 | 显示全部楼层
Exact Audio Copy V1.1 from 23. June 2015

EAC 抓取日志文件从7. 十一月 2017, 16:11

未知艺术家 / 未知标题

使用驱动器  :SONY    DVD RW DRU-V200A   Adapter: 1  ID: 1

读取模式      : 可靠Secure
使用精确流     : 是
清空音频缓存    : 否
使用 C2 指示器 : 是

读取偏移校正:               : 48
读取 Lead-In 和 Lead-Out : 否
用静音填充抓取中丢失偏移的采样       : 是
去除首尾静音块               : 否
在CRC 计算中使用了空样本       : 是
已用接口                  : Win NT 及 2000 本地 Win32 接口
间隙处理                  : 没检测到,因此追加到上一曲目

所用输出模式: : 内部 WAV 函数
样本格式    : 44.100 Hz; 16 Bit; 立体声


已抓取 CD 的 TOC

     音轨 |    起始    |    长度    |  起始扇区  |  结束扇区  
    --------------------------------------------
      1 |  0:00.00 |  5:57.43 |      0 |  26817
      2 |  5:57.43 |  6:26.20 |  26818 |  55787
      3 | 12:23.63 |  5:24.32 |  55788 |  80119
      4 | 17:48.20 |  3:47.52 |  80120 |  97196
      5 | 21:35.72 |  3:24.55 |  97197 | 112551
      6 | 25:00.52 |  4:14.72 | 112552 | 131673
      7 | 29:15.49 |  4:51.03 | 131674 | 153501
      8 | 34:06.52 |  4:30.50 | 153502 | 173801
      9 | 38:37.27 |  4:12.00 | 173802 | 192701
     10 | 42:49.27 |  4:19.46 | 192702 | 212172
     11 | 47:08.73 |  3:44.71 | 212173 | 229043
     12 | 50:53.69 |  3:58.34 | 229044 | 246927
     13 | 54:52.28 |  4:37.68 | 246928 | 267770
     14 | 59:30.21 |  4:37.18 | 267771 | 288563
     15 | 64:07.39 |  4:05.02 | 288564 | 306940


音轨  1

     文件名 K:\音乐\动画基地\第11期\肆之卷\01 音轨01 - 未知艺术家.wav

     峰值电平 100.0 %
     抓取速度 3.9 X
     音轨质量 100.0 %
     复制 CRC EBADF082
     音轨在 AccurateRip 数据库中无记录
     复制成功

音轨  2

     文件名 K:\音乐\动画基地\第11期\肆之卷\02 音轨02 - 未知艺术家.wav

     峰值电平 100.0 %
     抓取速度 4.0 X
     音轨质量 100.0 %
     复制 CRC D0B9538D
     音轨在 AccurateRip 数据库中无记录
     复制成功

音轨  3

     文件名 K:\音乐\动画基地\第11期\肆之卷\03 音轨03 - 未知艺术家.wav

     峰值电平 100.0 %
     抓取速度 3.8 X
     音轨质量 99.9 %
     复制 CRC 73F1365C
     音轨在 AccurateRip 数据库中无记录
     复制成功

音轨  4

     文件名 K:\音乐\动画基地\第11期\肆之卷\04 音轨04 - 未知艺术家.wav

     峰值电平 100.0 %
     抓取速度 3.8 X
     音轨质量 100.0 %
     复制 CRC D95742A7
     音轨在 AccurateRip 数据库中无记录
     复制成功

音轨  5

     文件名 K:\音乐\动画基地\第11期\肆之卷\05 音轨05 - 未知艺术家.wav

     峰值电平 100.0 %
     抓取速度 3.8 X
     音轨质量 100.0 %
     复制 CRC 7213CEE2
     音轨在 AccurateRip 数据库中无记录
     复制成功

音轨  6

     文件名 K:\音乐\动画基地\第11期\肆之卷\06 音轨06 - 未知艺术家.wav

     峰值电平 100.0 %
     抓取速度 3.9 X
     音轨质量 100.0 %
     复制 CRC 030FBADC
     音轨在 AccurateRip 数据库中无记录
     复制成功

音轨  7

     文件名 K:\音乐\动画基地\第11期\肆之卷\07 音轨07 - 未知艺术家.wav

     峰值电平 100.0 %
     抓取速度 4.0 X
     音轨质量 100.0 %
     复制 CRC 447FC188
     音轨在 AccurateRip 数据库中无记录
     复制成功

音轨  8

     文件名 K:\音乐\动画基地\第11期\肆之卷\08 音轨08 - 未知艺术家.wav

     峰值电平 100.0 %
     抓取速度 3.9 X
     音轨质量 100.0 %
     复制 CRC 5720E363
     音轨在 AccurateRip 数据库中无记录
     复制成功

音轨  9

     文件名 K:\音乐\动画基地\第11期\肆之卷\09 音轨09 - 未知艺术家.wav

     峰值电平 100.0 %
     抓取速度 3.8 X
     音轨质量 100.0 %
     复制 CRC 4CF142A9
     音轨在 AccurateRip 数据库中无记录
     复制成功

音轨 10

     文件名 K:\音乐\动画基地\第11期\肆之卷\10 音轨10 - 未知艺术家.wav

     峰值电平 100.0 %
     抓取速度 3.8 X
     音轨质量 100.0 %
     复制 CRC F65204D5
     音轨在 AccurateRip 数据库中无记录
     复制成功

音轨 11

     文件名 K:\音乐\动画基地\第11期\肆之卷\11 音轨11 - 未知艺术家.wav

     峰值电平 100.0 %
     抓取速度 3.8 X
     音轨质量 99.9 %
     复制 CRC 694817F4
     音轨在 AccurateRip 数据库中无记录
     复制成功

音轨 12

     文件名 K:\音乐\动画基地\第11期\肆之卷\12 音轨12 - 未知艺术家.wav

     峰值电平 100.0 %
     抓取速度 3.9 X
     音轨质量 100.0 %
     复制 CRC 89C9EED1
     音轨在 AccurateRip 数据库中无记录
     复制成功

音轨 13

     文件名 K:\音乐\动画基地\第11期\肆之卷\13 音轨13 - 未知艺术家.wav

     峰值电平 100.0 %
     抓取速度 4.0 X
     音轨质量 100.0 %
     复制 CRC 83518820
     音轨在 AccurateRip 数据库中无记录
     复制成功

音轨 14

     文件名 K:\音乐\动画基地\第11期\肆之卷\14 音轨14 - 未知艺术家.wav

     峰值电平 100.0 %
     抓取速度 3.5 X
     音轨质量 99.8 %
     复制 CRC 4819D743
     音轨在 AccurateRip 数据库中无记录
     复制成功

音轨 15

     文件名 K:\音乐\动画基地\第11期\肆之卷\15 音轨15 - 未知艺术家.wav

     峰值电平 99.8 %
     抓取速度 3.6 X
     音轨质量 99.9 %
     复制 CRC 758B7DBA
     音轨在 AccurateRip 数据库中无记录
     复制成功


没有任何音轨在 AccurateRip 数据库中有记录

没有错误发生

状态报告结尾

---- CUETools DB Plugin V2.1.6

[CTDB TOCID: LgfaZsrvW8mGo80mgRbcc9wnnUI-] found
Submit result: LgfaZsrvW8mGo80mgRbcc9wnnUI- has been confirmed
Track | CTDB Status
  1   | (1/1) Accurately ripped
  2   | (1/1) Accurately ripped
  3   | (1/1) Accurately ripped
  4   | (1/1) Accurately ripped
  5   | (1/1) Accurately ripped
  6   | (1/1) Accurately ripped
  7   | (1/1) Accurately ripped
  8   | (1/1) Accurately ripped
  9   | (1/1) Accurately ripped
10   | (1/1) Accurately ripped
11   | (1/1) Accurately ripped
12   | (1/1) Accurately ripped
13   | (1/1) Accurately ripped
14   | (1/1) Accurately ripped
15   | (1/1) Accurately ripped

0

主题

142

帖子

64

积分

新人会员,请认真回复,若恶意回复,直接封号

Rank: 1

积分
64
发表于 2017-11-13 23:06:57 | 显示全部楼层
谢谢分享。。。。。。。。。。。。

0

主题

76

帖子

147

积分

新人会员,请认真回复,若恶意回复,直接封号

Rank: 1

积分
147
发表于 3 天前 | 显示全部楼层
谢谢楼主分享,音乐带走~~
您需要登录后才可以回帖 登录 | 注册

本版积分规则

快速回复 返回顶部 返回列表