最近看过此主题的会员

查看: 110|回复: 0

[华语] 原抓:合集《通俗歌曲杂志附赠光盘》2007/整轨WAV/百度云

[复制链接]

143

主题

232

帖子

3万

积分

天王巨星

Rank: 7Rank: 7Rank: 7

积分
30379

灌水勋章

发表于 2017-11-7 01:15:58 | 显示全部楼层 |阅读模式

注册会员,获得无损资源下载地址,享受高品质音乐。

您需要 登录 才可以下载或查看,没有帐号?注册

x
通俗歌曲.JPG

专辑名称:通俗歌曲杂志附带光盘
歌手名称:合集
制作发行:通俗歌曲杂志社
发行日期:2007年6月
专辑语言:国/英语

偶然翻到的一张光盘,十年前的杂志光盘。通俗歌曲杂志2007年6月出刊。

曲目:
见图片

游客,如果您要查看本帖隐藏内容请回复



  1. REM DISCID B012060E
  2. REM COMMENT ExactAudioCopy v1.3
  3. TITLE "通俗歌曲2007.06"
  4. FILE "未知艺术家 - 未知标题.wav" WAVE
  5.   TRACK 01 AUDIO
  6.     TITLE "北海小英雄"
  7.     PERFORMER "胡椒猫乐团"
  8.     FLAGS DCP
  9.     INDEX 01 00:00:00
  10.   TRACK 02 AUDIO
  11.     TITLE "Rusty"
  12.     PERFORMER "TOOKOO乐队"
  13.     FLAGS DCP
  14.     INDEX 00 02:45:73
  15.     INDEX 01 02:47:73
  16.   TRACK 03 AUDIO
  17.     TITLE "昨天"
  18.     PERFORMER "黑阳K-evil"
  19.     FLAGS DCP
  20.     INDEX 00 06:58:23
  21.     INDEX 01 07:00:23
  22.   TRACK 04 AUDIO
  23.     TITLE "再见,莫扎特"
  24.     PERFORMER "蛋糕炸弹乐队"
  25.     FLAGS DCP
  26.     INDEX 00 10:53:63
  27.     INDEX 01 10:55:63
  28.   TRACK 05 AUDIO
  29.     TITLE "去改变"
  30.     PERFORMER "机制进化乐队"
  31.     FLAGS DCP
  32.     INDEX 00 14:17:74
  33.     INDEX 01 14:19:74
  34.   TRACK 06 AUDIO
  35.     TITLE "战之殇"
  36.     PERFORMER "新香水乐队"
  37.     FLAGS DCP
  38.     INDEX 00 18:30:28
  39.     INDEX 01 18:32:28
  40.   TRACK 07 AUDIO
  41.     TITLE "童"
  42.     PERFORMER "寂寞.夏.日乐队"
  43.     FLAGS DCP
  44.     INDEX 00 24:00:27
  45.     INDEX 01 24:02:27
  46.   TRACK 08 AUDIO
  47.     TITLE "Ultimate Rrgasm"
  48.     PERFORMER "血腥高潮(HYONBLUD)"
  49.     FLAGS DCP
  50.     INDEX 00 35:08:45
  51.     INDEX 01 35:10:45
  52.   TRACK 09 AUDIO
  53.     TITLE "灰,蓝色"
  54.     PERFORMER "液氧罐头乐队"
  55.     FLAGS DCP
  56.     INDEX 00 37:37:61
  57.     INDEX 01 37:39:61
  58.   TRACK 10 AUDIO
  59.     TITLE "My Crime"
  60.     PERFORMER "惘闻乐队"
  61.     FLAGS DCP
  62.     INDEX 00 43:05:01
  63.     INDEX 01 43:07:01
  64.   TRACK 11 AUDIO
  65.     TITLE "I Dreamt We Ruled The Sun"
  66.     PERFORMER "Seafood"
  67.     FLAGS DCP
  68.     INDEX 00 53:07:25
  69.     INDEX 01 53:09:25
  70.   TRACK 12 AUDIO
  71.     TITLE "Summner Falls"
  72.     PERFORMER "Seafood"
  73.     FLAGS DCP
  74.     INDEX 00 58:27:34
  75.     INDEX 01 58:29:34
  76.   TRACK 13 AUDIO
  77.     TITLE "Concerto Pour Deux Voix"
  78.     PERFORMER "Clemence&Jean-Baptister Maunier"
  79.     FLAGS DCP
  80.     INDEX 00 63:29:08
  81.     INDEX 01 63:31:08
复制代码

评分

参与人数 1CD +240 收起 理由
最终之战 + 240 精彩的帖子,辛苦了

查看全部评分




上一篇:原抓:合集《青春之星杂志附赠光盘》整轨WAV/百度云
下一篇:香港黑金原抓:招魂 Evocation - 天靈靈地靈靈 2013 WAV/百度
您需要登录后才可以回帖 登录 | 注册

本版积分规则

快速回复 返回顶部 返回列表