最近看过此主题的会员

查看: 87|回复: 0

[华语] 原抓:合集《青春之星杂志附赠光盘》整轨WAV/百度云

[复制链接]

143

主题

232

帖子

3万

积分

天王巨星

Rank: 7Rank: 7Rank: 7

积分
30379

灌水勋章

发表于 2017-11-7 01:13:15 | 显示全部楼层 |阅读模式

注册会员,获得无损资源下载地址,享受高品质音乐。

您需要 登录 才可以下载或查看,没有帐号?注册

x
青春之星.JPG
专辑名称:青春之星杂志附带光盘
歌手名称:合集
制作发行:青春之星杂志社
发行日期:未知
专辑语言:国语

偶然翻到的一张光盘,至少十年前的杂志光盘。应该是“青春之星”杂志的周年庆,具体是多少周年忘了。当年是期期必买,附送的MV光盘每张都留着,现在看来好多珍贵的MV。


曲目:
见图片

游客,如果您要查看本帖隐藏内容请回复



  1. REM DISCID BE0F8E0F
  2. REM COMMENT ExactAudioCopy v1.3
  3. TITLE "华语流行歌坛20年总发言"
  4. FILE "未知艺术家 - 未知标题.wav" WAVE
  5.   TRACK 01 AUDIO
  6.     TITLE "拜访春天"
  7.     PERFORMER "施孝荣"
  8.     INDEX 01 00:00:00
  9.   TRACK 02 AUDIO
  10.     TITLE "光阴的故事"
  11.     PERFORMER "张艾嘉"
  12.     INDEX 01 03:21:00
  13.   TRACK 03 AUDIO
  14.     TITLE "归去来兮"
  15.     PERFORMER "李建复"
  16.     INDEX 01 06:18:00
  17.   TRACK 04 AUDIO
  18.     TITLE "马不停蹄的忧伤"
  19.     PERFORMER "黄舒骏"
  20.     INDEX 01 10:15:00
  21.   TRACK 05 AUDIO
  22.     TITLE "我喜欢私奔和我自己"
  23.     PERFORMER "陈升"
  24.     INDEX 01 14:16:00
  25.   TRACK 06 AUDIO
  26.     TITLE "往天涯的尽头单飞"
  27.     PERFORMER "王新莲 郑华娟"
  28.     INDEX 01 19:32:00
  29.   TRACK 07 AUDIO
  30.     TITLE "向前走"
  31.     PERFORMER "林强"
  32.     INDEX 01 24:27:00
  33.   TRACK 08 AUDIO
  34.     TITLE "迷"
  35.     PERFORMER "齐豫 潘越云"
  36.     INDEX 01 30:33:00
  37.   TRACK 09 AUDIO
  38.     TITLE "相思三态"
  39.     PERFORMER "张洪量"
  40.     INDEX 01 33:27:00
  41.   TRACK 10 AUDIO
  42.     TITLE "酒后的心声"
  43.     PERFORMER "江蕙"
  44.     INDEX 01 37:31:00
  45.   TRACK 11 AUDIO
  46.     TITLE "外婆的澎湖湾"
  47.     PERFORMER "潘安邦"
  48.     INDEX 01 41:55:00
  49.   TRACK 12 AUDIO
  50.     TITLE "告别"
  51.     PERFORMER "李泰祥 唐晓诗"
  52.     INDEX 01 45:01:00
  53.   TRACK 13 AUDIO
  54.     TITLE "赤子"
  55.     PERFORMER "叶德娴"
  56.     INDEX 01 50:39:00
  57.   TRACK 14 AUDIO
  58.     TITLE "少年吔,安啦"
  59.     PERFORMER "伍佰"
  60.     INDEX 01 54:09:00
  61.   TRACK 15 AUDIO
  62.     TITLE "明天会更好"
  63.     PERFORMER "群星"
  64.     INDEX 01 61:01:00
复制代码

评分

参与人数 1CD +240 收起 理由
最终之战 + 240 感谢分享资源,CD包因你而精彩.

查看全部评分




上一篇:原抓:合集《我爱摇滚乐第17期》整轨WAV/百度云
下一篇:原抓:合集《通俗歌曲杂志附赠光盘》2007/整轨WAV/百度云
您需要登录后才可以回帖 登录 | 注册

本版积分规则

快速回复 返回顶部 返回列表