最近看过此主题的会员

查看: 82|回复: 0

[华语] 原抓:合集《我爱摇滚乐第17期》整轨WAV/百度云

[复制链接]

143

主题

232

帖子

3万

积分

天王巨星

Rank: 7Rank: 7Rank: 7

积分
30379

灌水勋章

发表于 2017-11-7 01:10:13 | 显示全部楼层 |阅读模式

注册会员,获得无损资源下载地址,享受高品质音乐。

您需要 登录 才可以下载或查看,没有帐号?注册

x
我爱摇滚乐.JPG
专辑名称:我爱摇滚乐第17期杂志附带光盘
歌手名称:合集
制作发行:我爱摇滚乐杂志社
发行日期:未知
专辑语言:国语

偶然翻到的一张光盘,至少十年前的杂志光盘。后附一个cue文件,已经编辑好了。


曲目:
见图片

游客,如果您要查看本帖隐藏内容请回复



  1. REM DISCID 8E09F30A
  2. REM COMMENT ExactAudioCopy v1.3
  3. TITLE "我爱摇滚乐17期"
  4. FILE "未知艺术家 - 未知标题.wav" WAVE
  5.   TRACK 01 AUDIO
  6.     TITLE "马老敦"
  7.     PERFORMER "旺财"
  8.     INDEX 01 00:00:00
  9.   TRACK 02 AUDIO
  10.     TITLE "血祭"
  11.     PERFORMER "血祭亡魂"
  12.     INDEX 00 02:44:02
  13.     INDEX 01 02:46:01
  14.   TRACK 03 AUDIO
  15.     TITLE "肮脏的角落"
  16.     PERFORMER "制度瓦解"
  17.     INDEX 00 09:04:13
  18.     INDEX 01 09:06:12
  19.   TRACK 04 AUDIO
  20.     TITLE "匀速行驶"
  21.     PERFORMER "无名指"
  22.     INDEX 00 12:33:45
  23.     INDEX 01 12:35:44
  24.   TRACK 05 AUDIO
  25.     TITLE "这样那样怎样"
  26.     PERFORMER "靳放崧"
  27.     INDEX 00 16:13:57
  28.     INDEX 01 16:15:56
  29.   TRACK 06 AUDIO
  30.     TITLE "痛苦杀死我吧"
  31.     PERFORMER "液氧罐头"
  32.     INDEX 00 20:41:40
  33.     INDEX 01 20:43:38
  34.   TRACK 07 AUDIO
  35.     TITLE "QQ"
  36.     PERFORMER "王璐"
  37.     INDEX 00 25:10:57
  38.     INDEX 01 25:12:56
  39.   TRACK 08 AUDIO
  40.     TITLE "奔跑"
  41.     PERFORMER "暗示"
  42.     INDEX 00 28:04:21
  43.     INDEX 01 28:06:20
  44.   TRACK 09 AUDIO
  45.     TITLE "进化"
  46.     PERFORMER "双曲线"
  47.     INDEX 00 31:50:10
  48.     INDEX 01 31:52:09
  49.   TRACK 10 AUDIO
  50.     TITLE "没有"
  51.     PERFORMER "灵前三分钟"
  52.     INDEX 00 36:46:17
  53.     INDEX 01 36:48:16
复制代码


评分

参与人数 1CD +240 收起 理由
最终之战 + 240 感谢分享资源,CD包因你而精彩.

查看全部评分




上一篇:原抓:温兆伦《 投入生命》 新曲+精选/WAV分轨/度盘
下一篇:原抓:合集《青春之星杂志附赠光盘》整轨WAV/百度云
您需要登录后才可以回帖 登录 | 注册

本版积分规则

快速回复 返回顶部 返回列表