最近看过此主题的会员

查看: 61|回复: 3

散碟原抓《动画基地》CD 叁之卷 WAV/分轨/度盘

[复制链接]
 成长值: 4965

229

主题

1161

帖子

5万

积分

VIP4

Rank: 7Rank: 7Rank: 7

积分
59130
发表于 2017-11-5 18:51:49 | 显示全部楼层 |阅读模式

注册会员,获得无损资源下载地址,享受高品质音乐。

您需要 登录 才可以下载或查看,没有帐号?注册

x
IMG_20171105_183118_1.jpg
不得不说的前言:
咳咳,各位,我把《动画基地》的碟子翻出来整理了好几天,但是,还是不全!特别是给的VCD和DVD,好多都已经找不到了,所以,我就只发CD喽。另外,杂志本体也被我给卖了,好在歌词本还留着,所以抓下来的音轨歌名作品什么的我就一切以歌词本为准啦。发CD的时候我尽量按照购买时的日期顺序来,如果中间有搞错的地方,还请大家原谅啦!最后,如有链接或解压方面的错误,私信我,我会尽快修正的,解压密码均为:此资源来自于CD包音乐论坛

叁之卷:
01 想大声说喜欢你---TV动画 灌篮高手 第一季片头歌
02 眼中只有你---TV动画 灌篮高手 第一季片尾歌
03 直到世界终结时---TV动画 灌篮高手 第二季片尾歌
04 落阳---TV动画 钢之炼金术师 插曲
05 GLORY~因为有你---TV动画 ONE PIECE 第七季片尾歌
06 奔跑吧,狼的勇士,奔跑吧---TV动画 狼之雨 插曲
07 萝莉塔☆夏天的草莓---TV动画 战记五九 第三季片尾歌
08 风骏---TV动画 十二国记 BGM
09 月迷风影---TV动画 十二国记 片尾歌
10 思芳歌---TV动画 十二国记 插曲
11 变质---TV动画 这个丑陋但美丽的世界 片头歌
12 BT的主题---TV动画 .Hack  SIGN BGM
13 月亮的秘密---TV动画 Planetes 插曲
14 瞳孔中的碎片---TV动画 Madlax 片头歌
15 宝石---OVA动画 柯婕特的肖像 主题歌
16 故乡---TV动画 钢之炼金术师 第三季片尾歌
17 娃娃的活力预报---TV动画 娱乐金鱼眼 片头歌

CD链接:
游客,如果您要查看本帖隐藏内容请回复

密码:
游客,如果您要查看本帖隐藏内容请回复



评分

参与人数 1CD +240 收起 理由
最终之战 + 240 感谢分享资源,CD包因你而精彩.

查看全部评分




上一篇:散碟原抓《动画基地》CD 贰之卷 WAV/分轨/度盘
下一篇:散碟原抓《动画基地》CD 肆之卷 WAV/分轨/度盘
 成长值: 4965

229

主题

1161

帖子

5万

积分

VIP4

Rank: 7Rank: 7Rank: 7

积分
59130
发表于 2017-11-5 18:52:22 | 显示全部楼层
Exact Audio Copy V1.1 from 23. June 2015

EAC 抓取日志文件从5. 十一月 2017, 16:18

未知艺术家 / 未知标题

使用驱动器  :SONY    CD-RW  CRX230E   Adapter: 1  ID: 2

读取模式      : 可靠Secure
使用精确流     : 是
清空音频缓存    : 是
使用 C2 指示器 : 是

读取偏移校正:               : 6
读取 Lead-In 和 Lead-Out : 否
用静音填充抓取中丢失偏移的采样       : 是
去除首尾静音块               : 否
在CRC 计算中使用了空样本       : 是
已用接口                  : Win NT 及 2000 本地 Win32 接口
间隙处理                  : 没检测到,因此追加到上一曲目

所用输出模式: : 内部 WAV 函数
样本格式    : 44.100 Hz; 16 Bit; 立体声


已抓取 CD 的 TOC

     音轨 |    起始    |    长度    |  起始扇区  |  结束扇区  
    --------------------------------------------
      1 |  0:00.00 |  3:50.27 |      0 |  17276
      2 |  3:50.27 |  4:44.73 |  17277 |  38649
      3 |  8:35.25 |  5:17.57 |  38650 |  62481
      4 | 13:53.07 |  1:40.27 |  62482 |  70008
      5 | 15:33.34 |  4:59.28 |  70009 |  92461
      6 | 20:32.62 |  5:57.14 |  92462 | 119250
      7 | 26:30.01 |  4:28.70 | 119251 | 139420
      8 | 30:58.71 |  2:19.65 | 139421 | 149910
      9 | 33:18.61 |  4:01.07 | 149911 | 167992
     10 | 37:19.68 |  4:38.54 | 167993 | 188896
     11 | 41:58.47 |  3:57.47 | 188897 | 206718
     12 | 45:56.19 |  2:38.02 | 206719 | 218570
     13 | 48:34.21 |  5:06.01 | 218571 | 241521
     14 | 53:40.22 |  4:05.19 | 241522 | 259915
     15 | 57:45.41 |  3:11.67 | 259916 | 274307
     16 | 60:57.33 |  4:33.30 | 274308 | 294812
     17 | 65:30.63 |  2:16.59 | 294813 | 305071


音轨  1

     文件名 K:\音乐\动画基地\第10期\叁之卷\01 音轨01 - 未知艺术家.wav

     峰值电平 96.2 %
     抓取速度 1.1 X
     音轨质量 99.9 %
     复制 CRC 5D78CD23
     音轨在 AccurateRip 数据库中无记录
     复制成功

音轨  2

     文件名 K:\音乐\动画基地\第10期\叁之卷\02 音轨02 - 未知艺术家.wav

     峰值电平 99.2 %
     抓取速度 1.6 X
     音轨质量 100.0 %
     复制 CRC CBF46BF3
     音轨在 AccurateRip 数据库中无记录
     复制成功

音轨  3

     文件名 K:\音乐\动画基地\第10期\叁之卷\03 音轨03 - 未知艺术家.wav

     峰值电平 91.9 %
     抓取速度 1.6 X
     音轨质量 100.0 %
     复制 CRC CA2063F8
     音轨在 AccurateRip 数据库中无记录
     复制成功

音轨  4

     文件名 K:\音乐\动画基地\第10期\叁之卷\04 音轨04 - 未知艺术家.wav

     峰值电平 100.0 %
     抓取速度 0.9 X
     音轨质量 99.7 %
     复制 CRC 2FD44F47
     音轨在 AccurateRip 数据库中无记录
     复制成功

音轨  5

     文件名 K:\音乐\动画基地\第10期\叁之卷\05 音轨05 - 未知艺术家.wav

     峰值电平 96.3 %
     抓取速度 1.6 X
     音轨质量 100.0 %
     复制 CRC 02978BA4
     音轨在 AccurateRip 数据库中无记录
     复制成功

音轨  6

     文件名 K:\音乐\动画基地\第10期\叁之卷\06 音轨06 - 未知艺术家.wav

     峰值电平 100.0 %
     抓取速度 1.6 X
     音轨质量 100.0 %
     复制 CRC 878D5975
     音轨在 AccurateRip 数据库中无记录
     复制成功

音轨  7

     文件名 K:\音乐\动画基地\第10期\叁之卷\07 音轨07 - 未知艺术家.wav

     峰值电平 99.5 %
     抓取速度 1.3 X
     音轨质量 99.9 %
     复制 CRC 81FFDE33
     音轨在 AccurateRip 数据库中无记录
     复制成功

音轨  8

     文件名 K:\音乐\动画基地\第10期\叁之卷\08 音轨08 - 未知艺术家.wav

     峰值电平 99.7 %
     抓取速度 1.3 X
     音轨质量 100.0 %
     复制 CRC FE4FE173
     音轨在 AccurateRip 数据库中无记录
     复制成功

音轨  9

     文件名 K:\音乐\动画基地\第10期\叁之卷\09 音轨09 - 未知艺术家.wav

     峰值电平 100.0 %
     抓取速度 1.5 X
     音轨质量 100.0 %
     复制 CRC CDE40DF9
     音轨在 AccurateRip 数据库中无记录
     复制成功

音轨 10

     文件名 K:\音乐\动画基地\第10期\叁之卷\10 音轨10 - 未知艺术家.wav

     峰值电平 100.0 %
     抓取速度 1.6 X
     音轨质量 100.0 %
     复制 CRC 2E08BEE9
     音轨在 AccurateRip 数据库中无记录
     复制成功

音轨 11

     文件名 K:\音乐\动画基地\第10期\叁之卷\11 音轨11 - 未知艺术家.wav

     峰值电平 99.8 %
     抓取速度 1.5 X
     音轨质量 100.0 %
     复制 CRC C053D92A
     音轨在 AccurateRip 数据库中无记录
     复制成功

音轨 12

     文件名 K:\音乐\动画基地\第10期\叁之卷\12 音轨12 - 未知艺术家.wav

     峰值电平 100.0 %
     抓取速度 1.4 X
     音轨质量 100.0 %
     复制 CRC CF24F144
     音轨在 AccurateRip 数据库中无记录
     复制成功

音轨 13

     文件名 K:\音乐\动画基地\第10期\叁之卷\13 音轨13 - 未知艺术家.wav

     峰值电平 100.0 %
     抓取速度 1.6 X
     音轨质量 100.0 %
     复制 CRC 0A3F29A2
     音轨在 AccurateRip 数据库中无记录
     复制成功

音轨 14

     文件名 K:\音乐\动画基地\第10期\叁之卷\14 音轨14 - 未知艺术家.wav

     峰值电平 98.8 %
     抓取速度 1.5 X
     音轨质量 100.0 %
     复制 CRC 8C17902C
     音轨在 AccurateRip 数据库中无记录
     复制成功

音轨 15

     文件名 K:\音乐\动画基地\第10期\叁之卷\15 音轨15 - 未知艺术家.wav

     峰值电平 100.0 %
     抓取速度 1.4 X
     音轨质量 100.0 %
     复制 CRC 82772F68
     音轨在 AccurateRip 数据库中无记录
     复制成功

音轨 16

     文件名 K:\音乐\动画基地\第10期\叁之卷\16 音轨16 - 未知艺术家.wav

     峰值电平 100.0 %
     抓取速度 1.3 X
     音轨质量 99.9 %
     复制 CRC C13F1653
     音轨在 AccurateRip 数据库中无记录
     复制成功

音轨 17

     文件名 K:\音乐\动画基地\第10期\叁之卷\17 音轨17 - 未知艺术家.wav

     峰值电平 100.0 %
     抓取速度 1.3 X
     音轨质量 100.0 %
     复制 CRC F4431A3E
     音轨在 AccurateRip 数据库中无记录
     复制成功


没有任何音轨在 AccurateRip 数据库中有记录

没有错误发生

状态报告结尾

---- CUETools DB Plugin V2.1.6

[CTDB TOCID: 6I5Z4KmCgV7Y04m.OkBUNx13E1M-] disk not present in database
Submit result: 6I5Z4KmCgV7Y04m.OkBUNx13E1M- has been uploaded

0

主题

33

帖子

95

积分

新人会员,请认真回复,若恶意回复,直接封号

Rank: 1

积分
95

社区QQ达人

发表于 2017-11-5 19:56:45 | 显示全部楼层
神曲神曲神曲神曲神曲神曲!!!

0

主题

73

帖子

142

积分

新人会员,请认真回复,若恶意回复,直接封号

Rank: 1

积分
142
发表于 2017-11-5 22:40:13 | 显示全部楼层
谢谢楼主分享~~~~
您需要登录后才可以回帖 登录 | 注册

本版积分规则

快速回复 返回顶部 返回列表