最近看过此主题的会员

查看: 107|回复: 3

散碟原抓《动画基地》CD 贰之卷 WAV/分轨/度盘

[复制链接]
 成长值: 5010

229

主题

1161

帖子

5万

积分

VIP4

Rank: 7Rank: 7Rank: 7

积分
59130
发表于 2017-11-4 18:21:42 | 显示全部楼层 |阅读模式

注册会员,获得无损资源下载地址,享受高品质音乐。

您需要 登录 才可以下载或查看,没有帐号?注册

x
IMG_20171104_180839_1.jpg
不得不说的前言:
咳咳,各位,我把《动画基地》的碟子翻出来整理了好几天,但是,还是不全!特别是给的VCD和DVD,好多都已经找不到了,所以,我就只发CD喽。另外,杂志本体也被我给卖了,好在歌词本还留着,所以抓下来的音轨歌名作品什么的我就一切以歌词本为准啦。发CD的时候我尽量按照购买时的日期顺序来,如果中间有搞错的地方,还请大家原谅啦!最后,如有链接或解压方面的错误,私信我,我会尽快修正的,解压密码均为:此资源来自于CD包音乐论坛

贰之卷:
01 ZIPS---机动战士高达SEED~虚空的战场 总集篇插曲
02 NEVER---圣斗士星矢天界篇 剧场版主题歌
03 行星---PLANETES TV版插曲
04 凌云交响曲---最终流放 TV版片头主题歌
05 PASTEL PURE---圣母在上 TV版片头曲
06 瞳孔中的迷宫---暗与帽子与书的旅人 TV版片头主题歌
07 永远的祈祷---暗与帽子与书的旅人 TV版片尾主题歌
08 心静夜也明---十兵卫2 TV版片尾主题歌
09 深邃宇宙---攻壳机动队 STAND ALONE COMPLEX TV版片头主题歌
10 反抗---攻壳机动队 SAC2GIG TV版片头主题歌
11 鸣人的主题---火影忍者 TV版BGM
12 兄弟---钢之炼金术师 TV版插曲
13 仿如天使---高桥留美子剧场~人鱼之森 TV版片头主题歌
14 来感觉了---PEACE MAKER·铁 TV版片头主题歌
15 犬夜叉连歌---犬夜叉 TV版插曲精选

CD链接:
游客,如果您要查看本帖隐藏内容请回复

密码:
游客,如果您要查看本帖隐藏内容请回复



评分

参与人数 1CD +240 收起 理由
最终之战 + 240 很棒的帖子,支持

查看全部评分




上一篇:散碟原抓《动画基地》CD 壹之卷 WAV/分轨/度盘
下一篇:散碟原抓《动画基地》CD 叁之卷 WAV/分轨/度盘
 成长值: 5010

229

主题

1161

帖子

5万

积分

VIP4

Rank: 7Rank: 7Rank: 7

积分
59130
发表于 2017-11-4 18:22:10 | 显示全部楼层
Exact Audio Copy V1.1 from 23. June 2015

EAC 抓取日志文件从4. 十一月 2017, 16:22

未知艺术家 / 未知标题

使用驱动器  :SONY    CD-RW  CRX230E   Adapter: 1  ID: 2

读取模式      : 可靠Secure
使用精确流     : 是
清空音频缓存    : 是
使用 C2 指示器 : 是

读取偏移校正:               : 6
读取 Lead-In 和 Lead-Out : 否
用静音填充抓取中丢失偏移的采样       : 是
去除首尾静音块               : 否
在CRC 计算中使用了空样本       : 是
已用接口                  : Win NT 及 2000 本地 Win32 接口
间隙处理                  : 没检测到,因此追加到上一曲目

所用输出模式: : 内部 WAV 函数
样本格式    : 44.100 Hz; 16 Bit; 立体声


已抓取 CD 的 TOC

     音轨 |    起始    |    长度    |  起始扇区  |  结束扇区  
    --------------------------------------------
      1 |  0:00.00 |  4:07.25 |      0 |  18549
      2 |  4:07.25 |  5:07.49 |  18550 |  41623
      3 |  9:14.74 |  3:12.42 |  41624 |  56065
      4 | 12:27.41 |  4:12.63 |  56066 |  75028
      5 | 16:40.29 |  4:23.20 |  75029 |  94773
      6 | 21:03.49 |  4:16.30 |  94774 | 114003
      7 | 25:20.04 |  4:58.18 | 114004 | 136371
      8 | 30:18.22 |  3:20.33 | 136372 | 151404
      9 | 33:38.55 |  4:56.73 | 151405 | 173677
     10 | 38:35.53 |  5:32.45 | 173678 | 198622
     11 | 44:08.23 |  4:29.04 | 198623 | 218801
     12 | 48:37.27 |  4:07.43 | 218802 | 237369
     13 | 52:44.70 |  3:52.04 | 237370 | 254773
     14 | 56:36.74 |  4:13.39 | 254774 | 273787
     15 | 60:50.38 |  7:33.59 | 273788 | 307821


音轨  1

     文件名 K:\音乐\动画基地\第09期\贰之卷\01 音轨01 - 未知艺术家.wav

     峰值电平 59.3 %
     抓取速度 1.5 X
     音轨质量 100.0 %
     复制 CRC 1098DF61
     音轨在 AccurateRip 数据库中无记录
     复制成功

音轨  2

     文件名 K:\音乐\动画基地\第09期\贰之卷\02 音轨02 - 未知艺术家.wav

     峰值电平 100.0 %
     抓取速度 1.6 X
     音轨质量 100.0 %
     复制 CRC 98D5D7E8
     音轨在 AccurateRip 数据库中无记录
     复制成功

音轨  3

     文件名 K:\音乐\动画基地\第09期\贰之卷\03 音轨03 - 未知艺术家.wav

     峰值电平 98.0 %
     抓取速度 1.4 X
     音轨质量 100.0 %
     复制 CRC ACA448FD
     音轨在 AccurateRip 数据库中无记录
     复制成功

音轨  4

     文件名 K:\音乐\动画基地\第09期\贰之卷\04 音轨04 - 未知艺术家.wav

     峰值电平 100.0 %
     抓取速度 1.5 X
     音轨质量 100.0 %
     复制 CRC 8973543E
     音轨在 AccurateRip 数据库中无记录
     复制成功

音轨  5

     文件名 K:\音乐\动画基地\第09期\贰之卷\05 音轨05 - 未知艺术家.wav

     峰值电平 97.3 %
     抓取速度 1.5 X
     音轨质量 100.0 %
     复制 CRC C4088AF2
     音轨在 AccurateRip 数据库中无记录
     复制成功

音轨  6

     文件名 K:\音乐\动画基地\第09期\贰之卷\06 音轨06 - 未知艺术家.wav

     峰值电平 59.3 %
     抓取速度 1.5 X
     音轨质量 100.0 %
     复制 CRC 9CE70F47
     音轨在 AccurateRip 数据库中无记录
     复制成功

音轨  7

     文件名 K:\音乐\动画基地\第09期\贰之卷\07 音轨07 - 未知艺术家.wav

     峰值电平 88.2 %
     抓取速度 1.6 X
     音轨质量 100.0 %
     复制 CRC 447D34C2
     音轨在 AccurateRip 数据库中无记录
     复制成功

音轨  8

     文件名 K:\音乐\动画基地\第09期\贰之卷\08 音轨08 - 未知艺术家.wav

     峰值电平 66.0 %
     抓取速度 1.2 X
     音轨质量 99.8 %
     复制 CRC 681F18D7
     音轨在 AccurateRip 数据库中无记录
     复制成功

音轨  9

     文件名 K:\音乐\动画基地\第09期\贰之卷\09 音轨09 - 未知艺术家.wav

     峰值电平 100.0 %
     抓取速度 1.4 X
     音轨质量 99.9 %
     复制 CRC 0A974740
     音轨在 AccurateRip 数据库中无记录
     复制成功

音轨 10

     文件名 K:\音乐\动画基地\第09期\贰之卷\10 音轨10 - 未知艺术家.wav

     峰值电平 99.1 %
     抓取速度 1.6 X
     音轨质量 100.0 %
     复制 CRC 7BED3A7C
     音轨在 AccurateRip 数据库中无记录
     复制成功

音轨 11

     文件名 K:\音乐\动画基地\第09期\贰之卷\11 音轨11 - 未知艺术家.wav

     峰值电平 100.0 %
     抓取速度 1.5 X
     音轨质量 100.0 %
     复制 CRC 4412E61B
     音轨在 AccurateRip 数据库中无记录
     复制成功

音轨 12

     文件名 K:\音乐\动画基地\第09期\贰之卷\12 音轨12 - 未知艺术家.wav

     峰值电平 100.0 %
     抓取速度 1.5 X
     音轨质量 100.0 %
     复制 CRC 5ED0748A
     音轨在 AccurateRip 数据库中无记录
     复制成功

音轨 13

     文件名 K:\音乐\动画基地\第09期\贰之卷\13 音轨13 - 未知艺术家.wav

     峰值电平 94.6 %
     抓取速度 1.5 X
     音轨质量 100.0 %
     复制 CRC BE1A8FA1
     音轨在 AccurateRip 数据库中无记录
     复制成功

音轨 14

     文件名 K:\音乐\动画基地\第09期\贰之卷\14 音轨14 - 未知艺术家.wav

     峰值电平 55.8 %
     抓取速度 1.5 X
     音轨质量 100.0 %
     复制 CRC A8A2A1FF
     音轨在 AccurateRip 数据库中无记录
     复制成功

音轨 15

     文件名 K:\音乐\动画基地\第09期\贰之卷\15 音轨15 - 未知艺术家.wav

     峰值电平 100.0 %
     抓取速度 1.5 X
     音轨质量 99.9 %
     复制 CRC 3F2E79A5
     音轨在 AccurateRip 数据库中无记录
     复制成功


没有任何音轨在 AccurateRip 数据库中有记录

没有错误发生

状态报告结尾

---- CUETools DB Plugin V2.1.6

[CTDB TOCID: Kt.kYfWKOqoRXP2GtStylhfNgPE-] disk not present in database
Submit result: Kt.kYfWKOqoRXP2GtStylhfNgPE- has been uploaded

0

主题

22

帖子

78

积分

新人会员,请认真回复,若恶意回复,直接封号

Rank: 1

积分
78

社区QQ达人

发表于 2017-11-4 21:47:30 | 显示全部楼层
谢谢楼主的分享




0

主题

76

帖子

147

积分

新人会员,请认真回复,若恶意回复,直接封号

Rank: 1

积分
147
发表于 2017-11-5 22:38:57 | 显示全部楼层
谢谢楼主分享~~~~
您需要登录后才可以回帖 登录 | 注册

本版积分规则

快速回复 返回顶部 返回列表