最近看过此主题的会员

查看: 120|回复: 3

散碟原抓《动画基地》CD 壹之卷 WAV/分轨/度盘

[复制链接]
 成长值: 5010

229

主题

1161

帖子

5万

积分

VIP4

Rank: 7Rank: 7Rank: 7

积分
59130
发表于 2017-11-3 19:19:53 | 显示全部楼层 |阅读模式

注册会员,获得无损资源下载地址,享受高品质音乐。

您需要 登录 才可以下载或查看,没有帐号?注册

x
IMG_20171103_184315_1.jpg
不得不说的前言:
咳咳,各位,我把《动画基地》的碟子翻出来整理了好几天,但是,还是不全!特别是给的VCD和DVD,好多都已经找不到了,所以,我就只发CD喽。另外,杂志本体也被我给卖了,好在歌词本还留着,所以抓下来的音轨歌名作品什么的我就一切以歌词本为准啦。发CD的时候我尽量按照购买时的日期顺序来,如果中间有搞错的地方,还请大家原谅啦!最后,如有链接或解压方面的错误,私信我,我会尽快修正的,解压密码均为:此资源来自于CD包音乐论坛


壹之卷:
01 Get Over---棋魂 TV版片头主题歌一
02 SINCERELY-EVER DREAM---棋魂 TV版片尾主题歌三
03 温暖的目光---棋魂 TV版BGM
04 Time afer time~在落花飞舞的街上---名侦探柯南~迷宫的十字路口 主题歌
05 约束---最终兵器彼女 TV版印象曲
06 为了让你安心入梦---最终兵器彼女 TV版插曲
07 自由鸟 向着白昼的月亮---灰羽联盟 TV版片头印象曲
08 遗忘之水~河鱼的主题歌---灰羽联盟 角色印象歌
09 神秘园---豪尔的浮游城 印象插曲
10 月之茧 交响乐双语版---Turn A gundam 音乐会曲目
11 彩虹调谐---翼神传说~多元变奏曲 主题歌
12 万物的花园---Tune the rainbow 单曲CD副歌
13 星空的华尔兹---此情可待成永远 TV版片尾主题歌
14 雨云---此情可待成永远 TV版及游戏版BGM
15 Destiny 宿命---羊之歌 OVA版片尾主题歌
16 跟我走吧(原编曲版)---攻壳机动队~纯粹 主题歌

CD链接:
游客,如果您要查看本帖隐藏内容请回复

密码:
游客,如果您要查看本帖隐藏内容请回复



评分

参与人数 1CD +240 收起 理由
最终之战 + 240 感谢分享资源,CD包因你而精彩.

查看全部评分




上一篇:散碟原抓《动画基地》CD 圣斗士英雄交响曲 WAV/分轨/度盘
下一篇:散碟原抓《动画基地》CD 贰之卷 WAV/分轨/度盘
 成长值: 5010

229

主题

1161

帖子

5万

积分

VIP4

Rank: 7Rank: 7Rank: 7

积分
59130
发表于 2017-11-3 19:20:18 | 显示全部楼层
Exact Audio Copy V1.1 from 23. June 2015

EAC 抓取日志文件从3. 十一月 2017, 16:39

未知艺术家 / 未知标题

使用驱动器  :SONY    CD-RW  CRX230E   Adapter: 1  ID: 2

读取模式      : 可靠Secure
使用精确流     : 是
清空音频缓存    : 是
使用 C2 指示器 : 是

读取偏移校正:               : 6
读取 Lead-In 和 Lead-Out : 否
用静音填充抓取中丢失偏移的采样       : 是
去除首尾静音块               : 否
在CRC 计算中使用了空样本       : 是
已用接口                  : Win NT 及 2000 本地 Win32 接口
间隙处理                  : 没检测到,因此追加到上一曲目

所用输出模式: : 内部 WAV 函数
样本格式    : 44.100 Hz; 16 Bit; 立体声


已抓取 CD 的 TOC

     音轨 |    起始    |    长度    |  起始扇区  |  结束扇区  
    --------------------------------------------
      1 |  0:00.00 |  5:18.27 |      0 |  23876
      2 |  5:18.27 |  5:11.12 |  23877 |  47213
      3 | 10:29.39 |  2:04.64 |  47214 |  56577
      4 | 12:34.28 |  4:14.12 |  56578 |  75639
      5 | 16:48.40 |  4:01.38 |  75640 |  93752
      6 | 20:50.03 |  2:30.22 |  93753 | 105024
      7 | 23:20.25 |  4:53.14 | 105025 | 127013
      8 | 28:13.39 |  3:52.25 | 127014 | 144438
      9 | 32:05.64 |  3:26.38 | 144439 | 159926
     10 | 35:32.27 |  5:00.17 | 159927 | 182443
     11 | 40:32.44 |  5:35.71 | 182444 | 207639
     12 | 46:08.40 |  6:25.39 | 207640 | 236553
     13 | 52:34.04 |  3:20.26 | 236554 | 251579
     14 | 55:54.30 |  1:45.30 | 251580 | 259484
     15 | 57:39.60 |  5:20.42 | 259485 | 283526
     16 | 63:00.27 |  5:01.08 | 283527 | 306109


音轨  1

     文件名 K:\音乐\动画基地\第08期\壹之卷\01 音轨01 - 未知艺术家.wav

     峰值电平 100.0 %
     抓取速度 1.4 X
     音轨质量 99.9 %
     复制 CRC 2191F0DE
     音轨在 AccurateRip 数据库中无记录
     复制成功

音轨  2

     文件名 K:\音乐\动画基地\第08期\壹之卷\02 音轨02 - 未知艺术家.wav

     峰值电平 100.0 %
     抓取速度 1.6 X
     音轨质量 100.0 %
     复制 CRC 606A8F07
     音轨在 AccurateRip 数据库中无记录
     复制成功

音轨  3

     文件名 K:\音乐\动画基地\第08期\壹之卷\03 音轨03 - 未知艺术家.wav

     峰值电平 100.0 %
     抓取速度 1.3 X
     音轨质量 100.0 %
     复制 CRC 366D71B4
     音轨在 AccurateRip 数据库中无记录
     复制成功

音轨  4

     文件名 K:\音乐\动画基地\第08期\壹之卷\04 音轨04 - 未知艺术家.wav

     峰值电平 94.0 %
     抓取速度 1.5 X
     音轨质量 100.0 %
     复制 CRC 96C4412F
     音轨在 AccurateRip 数据库中无记录
     复制成功

音轨  5

     文件名 K:\音乐\动画基地\第08期\壹之卷\05 音轨05 - 未知艺术家.wav

     峰值电平 100.0 %
     抓取速度 1.5 X
     音轨质量 100.0 %
     复制 CRC 53CF4F5E
     音轨在 AccurateRip 数据库中无记录
     复制成功

音轨  6

     文件名 K:\音乐\动画基地\第08期\壹之卷\06 音轨06 - 未知艺术家.wav

     峰值电平 100.0 %
     抓取速度 1.4 X
     音轨质量 100.0 %
     复制 CRC BB23B8B4
     音轨在 AccurateRip 数据库中无记录
     复制成功

音轨  7

     文件名 K:\音乐\动画基地\第08期\壹之卷\07 音轨07 - 未知艺术家.wav

     峰值电平 97.9 %
     抓取速度 1.4 X
     音轨质量 99.9 %
     复制 CRC E95FBE0D
     音轨在 AccurateRip 数据库中无记录
     复制成功

音轨  8

     文件名 K:\音乐\动画基地\第08期\壹之卷\08 音轨08 - 未知艺术家.wav

     峰值电平 97.9 %
     抓取速度 1.5 X
     音轨质量 100.0 %
     复制 CRC 50BE8518
     音轨在 AccurateRip 数据库中无记录
     复制成功

音轨  9

     文件名 K:\音乐\动画基地\第08期\壹之卷\09 音轨09 - 未知艺术家.wav

     峰值电平 55.5 %
     抓取速度 1.2 X
     音轨质量 99.8 %
     复制 CRC D6C5DDD0
     音轨在 AccurateRip 数据库中无记录
     复制成功

音轨 10

     文件名 K:\音乐\动画基地\第08期\壹之卷\10 音轨10 - 未知艺术家.wav

     峰值电平 100.0 %
     抓取速度 1.6 X
     音轨质量 100.0 %
     复制 CRC CFA52B4D
     音轨在 AccurateRip 数据库中无记录
     复制成功

音轨 11

     文件名 K:\音乐\动画基地\第08期\壹之卷\11 音轨11 - 未知艺术家.wav

     峰值电平 99.6 %
     抓取速度 1.6 X
     音轨质量 100.0 %
     复制 CRC 849CE1C9
     音轨在 AccurateRip 数据库中无记录
     复制成功

音轨 12

     文件名 K:\音乐\动画基地\第08期\壹之卷\12 音轨12 - 未知艺术家.wav

     峰值电平 100.0 %
     抓取速度 1.6 X
     音轨质量 100.0 %
     复制 CRC 7DFBB8D1
     音轨在 AccurateRip 数据库中无记录
     复制成功

音轨 13

     文件名 K:\音乐\动画基地\第08期\壹之卷\13 音轨13 - 未知艺术家.wav

     峰值电平 98.1 %
     抓取速度 1.5 X
     音轨质量 100.0 %
     复制 CRC A15E192B
     音轨在 AccurateRip 数据库中无记录
     复制成功

音轨 14

     文件名 K:\音乐\动画基地\第08期\壹之卷\14 音轨14 - 未知艺术家.wav

     峰值电平 82.9 %
     抓取速度 1.2 X
     音轨质量 100.0 %
     复制 CRC DC6208C6
     音轨在 AccurateRip 数据库中无记录
     复制成功

音轨 15

     文件名 K:\音乐\动画基地\第08期\壹之卷\15 音轨15 - 未知艺术家.wav

     峰值电平 100.0 %
     抓取速度 1.4 X
     音轨质量 99.9 %
     复制 CRC BABCF625
     音轨在 AccurateRip 数据库中无记录
     复制成功

音轨 16

     文件名 K:\音乐\动画基地\第08期\壹之卷\16 音轨16 - 未知艺术家.wav

     峰值电平 100.0 %
     抓取速度 1.5 X
     音轨质量 100.0 %
     复制 CRC C9767D0D
     音轨在 AccurateRip 数据库中无记录
     复制成功


没有任何音轨在 AccurateRip 数据库中有记录

没有错误发生

状态报告结尾

---- CUETools DB Plugin V2.1.6

[CTDB TOCID: 29jorZ1_Wt.Ii_sz6xISCqrhsOY-] found
Submit result: 29jorZ1_Wt.Ii_sz6xISCqrhsOY- has been confirmed
Track | CTDB Status
  1   | (3/3) Accurately ripped
  2   | (3/3) Accurately ripped
  3   | (3/3) Accurately ripped
  4   | (3/3) Accurately ripped
  5   | (3/3) Accurately ripped
  6   | (3/3) Accurately ripped
  7   | (3/3) Accurately ripped
  8   | (3/3) Accurately ripped
  9   | (3/3) Accurately ripped
10   | (3/3) Accurately ripped
11   | (3/3) Accurately ripped
12   | (3/3) Accurately ripped
13   | (3/3) Accurately ripped
14   | (3/3) Accurately ripped
15   | (3/3) Accurately ripped
16   | (3/3) Accurately ripped

0

主题

22

帖子

78

积分

新人会员,请认真回复,若恶意回复,直接封号

Rank: 1

积分
78

社区QQ达人

发表于 2017-11-4 21:45:35 | 显示全部楼层
谢谢楼主的分享




0

主题

76

帖子

147

积分

新人会员,请认真回复,若恶意回复,直接封号

Rank: 1

积分
147
发表于 2017-11-5 22:34:40 | 显示全部楼层
谢谢楼主分享,抱走啦~~
您需要登录后才可以回帖 登录 | 注册

本版积分规则

快速回复 返回顶部 返回列表