最近看过此主题的会员

查看: 109|回复: 3

散碟原抓《动画基地》CD 霜之卷 WAV/分轨/度盘

[复制链接]
 成长值: 4965

229

主题

1161

帖子

5万

积分

VIP4

Rank: 7Rank: 7Rank: 7

积分
59130
发表于 2017-11-1 18:52:48 | 显示全部楼层 |阅读模式

注册会员,获得无损资源下载地址,享受高品质音乐。

您需要 登录 才可以下载或查看,没有帐号?注册

x
本帖最后由 龙王机 于 2017-11-1 18:55 编辑

IMG_20171101_183151_1.jpg
不得不说的前言:
咳咳,各位,我把《动画基地》的碟子翻出来整理了好几天,但是,还是不全!特别是给的VCD和DVD,好多都已经找不到了,所以,我就只发CD喽。另外,杂志本体也被我给卖了,好在歌词本还留着,所以抓下来的音轨歌名作品什么的我就一切以歌词本为准啦。发CD的时候我尽量按照购买时的日期顺序来,如果中间有搞错的地方,还请大家原谅啦!最后,如有链接或解压方面的错误,私信我,我会尽快修正的,解压密码均为:此资源来自于CD包音乐论坛

霜之卷:
01 向你而去---TV动画 遥远时空中~八叶抄 片头歌
02 FLOWIN'~浮云~---TV动画 遥远时空中~八叶抄 片尾歌
03 乐园---剧场版动画 红莲的蓬莱岛 主题歌
04 故地钢琴版---OVA动画 Memories off 2nd 片尾歌
05 夏日回忆---PS游戏 最终幻想8 主题歌日语版
06 最爱---冈崎律子专辑 Rain or Shine 收录
07 嫒星---TV动画 战姬之舞 BGM
08 不过只是童话---TV动画 战姬之舞 插曲
09 你就是天空---TV动画 战姬之舞 片尾歌
10 千歌音---TV动画 神无月的巫女 BGM
11 思念-风中起舞的路标---PC游戏 朱-Aka- 插曲
12 朱红---PC游戏 朱-Aka- 插曲
13 伤悲---TV动画 神无月的巫女 BGM
14 玻璃球---TV动画 现视研 片尾歌
15 MY WILL 交响乐版---wind-犬夜叉 交响连歌 收录
16 光之魂---TV动画 天空战记 片头歌

CD链接:
游客,如果您要查看本帖隐藏内容请回复

密码:
游客,如果您要查看本帖隐藏内容请回复


评分

参与人数 1CD +300 收起 理由
最终之战 + 300 感谢分享资源,CD包因你而精彩.

查看全部评分




上一篇:散碟原抓《动画基地》CD 雾之卷 WAV/分轨/度盘
下一篇:散碟原抓《动画基地》CD 圣斗士英雄交响曲 WAV/分轨/度盘
 成长值: 4965

229

主题

1161

帖子

5万

积分

VIP4

Rank: 7Rank: 7Rank: 7

积分
59130
发表于 2017-11-1 18:53:21 | 显示全部楼层
Exact Audio Copy V1.1 from 23. June 2015

EAC 抓取日志文件从31. 十月 2017, 15:59

未知艺术家 / 未知标题

使用驱动器  :SONY    CD-RW  CRX230E   Adapter: 1  ID: 2

读取模式      : 可靠Secure
使用精确流     : 是
清空音频缓存    : 是
使用 C2 指示器 : 是

读取偏移校正:               : 6
读取 Lead-In 和 Lead-Out : 否
用静音填充抓取中丢失偏移的采样       : 是
去除首尾静音块               : 否
在CRC 计算中使用了空样本       : 是
已用接口                  : Win NT 及 2000 本地 Win32 接口
间隙处理                  : 没检测到,因此追加到上一曲目

所用输出模式: : 内部 WAV 函数
样本格式    : 44.100 Hz; 16 Bit; 立体声


已抓取 CD 的 TOC

     音轨 |    起始    |    长度    |  起始扇区  |  结束扇区  
    --------------------------------------------
      1 |  0:00.00 |  4:23.41 |      0 |  19765
      2 |  4:23.41 |  4:12.27 |  19766 |  38692
      3 |  8:35.68 |  4:57.10 |  38693 |  60977
      4 | 13:33.03 |  5:30.40 |  60978 |  85767
      5 | 19:03.43 |  5:44.31 |  85768 | 111598
      6 | 24:47.74 |  5:10.25 | 111599 | 134873
      7 | 29:58.24 |  2:39.20 | 134874 | 146818
      8 | 32:37.44 |  2:23.42 | 146819 | 157585
      9 | 35:01.11 |  4:33.74 | 157586 | 178134
     10 | 39:35.10 |  2:33.56 | 178135 | 189665
     11 | 42:08.66 |  4:58.23 | 189666 | 212038
     12 | 47:07.14 |  3:42.00 | 212039 | 228688
     13 | 50:49.14 |  1:49.45 | 228689 | 236908
     14 | 52:38.59 |  4:04.30 | 236909 | 255238
     15 | 56:43.14 |  6:07.20 | 255239 | 282783
     16 | 62:50.34 |  4:41.68 | 282784 | 303926


音轨  1

     文件名 K:\音乐\动画基地\第06期\霜之卷\01 音轨01 - 未知艺术家.wav

     峰值电平 95.0 %
     抓取速度 1.3 X
     音轨质量 99.9 %
     复制 CRC A828D5D0
     音轨在 AccurateRip 数据库中无记录
     复制成功

音轨  2

     文件名 K:\音乐\动画基地\第06期\霜之卷\02 音轨02 - 未知艺术家.wav

     峰值电平 95.0 %
     抓取速度 1.3 X
     音轨质量 99.9 %
     复制 CRC C46102F5
     音轨在 AccurateRip 数据库中无记录
     复制成功

音轨  3

     文件名 K:\音乐\动画基地\第06期\霜之卷\03 音轨03 - 未知艺术家.wav

     峰值电平 95.0 %
     抓取速度 1.6 X
     音轨质量 100.0 %
     复制 CRC 0DFF3C9A
     音轨在 AccurateRip 数据库中无记录
     复制成功

音轨  4

     文件名 K:\音乐\动画基地\第06期\霜之卷\04 音轨04 - 未知艺术家.wav

     峰值电平 100.0 %
     抓取速度 1.6 X
     音轨质量 100.0 %
     复制 CRC B3DCF4E5
     音轨在 AccurateRip 数据库中无记录
     复制成功

音轨  5

     文件名 K:\音乐\动画基地\第06期\霜之卷\05 音轨05 - 未知艺术家.wav

     峰值电平 100.0 %
     抓取速度 1.6 X
     音轨质量 100.0 %
     复制 CRC B0079CF4
     音轨在 AccurateRip 数据库中无记录
     复制成功

音轨  6

     文件名 K:\音乐\动画基地\第06期\霜之卷\06 音轨06 - 未知艺术家.wav

     峰值电平 100.0 %
     抓取速度 1.6 X
     音轨质量 100.0 %
     复制 CRC 5FF5F874
     音轨在 AccurateRip 数据库中无记录
     复制成功

音轨  7

     文件名 K:\音乐\动画基地\第06期\霜之卷\07 音轨07 - 未知艺术家.wav

     峰值电平 100.0 %
     抓取速度 1.4 X
     音轨质量 100.0 %
     复制 CRC 4115D96A
     音轨在 AccurateRip 数据库中无记录
     复制成功

音轨  8

     文件名 K:\音乐\动画基地\第06期\霜之卷\08 音轨08 - 未知艺术家.wav

     峰值电平 100.0 %
     抓取速度 1.4 X
     音轨质量 100.0 %
     复制 CRC E95562AC
     音轨在 AccurateRip 数据库中无记录
     复制成功

音轨  9

     文件名 K:\音乐\动画基地\第06期\霜之卷\09 音轨09 - 未知艺术家.wav

     峰值电平 100.0 %
     抓取速度 1.5 X
     音轨质量 100.0 %
     复制 CRC 8ED17123
     音轨在 AccurateRip 数据库中无记录
     复制成功

音轨 10

     文件名 K:\音乐\动画基地\第06期\霜之卷\10 音轨10 - 未知艺术家.wav

     峰值电平 100.0 %
     抓取速度 1.3 X
     音轨质量 100.0 %
     复制 CRC 6C00106B
     音轨在 AccurateRip 数据库中无记录
     复制成功

音轨 11

     文件名 K:\音乐\动画基地\第06期\霜之卷\11 音轨11 - 未知艺术家.wav

     峰值电平 100.0 %
     抓取速度 1.5 X
     音轨质量 100.0 %
     复制 CRC 8AB73465
     音轨在 AccurateRip 数据库中无记录
     复制成功

音轨 12

     文件名 K:\音乐\动画基地\第06期\霜之卷\12 音轨12 - 未知艺术家.wav

     峰值电平 100.0 %
     抓取速度 1.5 X
     音轨质量 100.0 %
     复制 CRC 8EC9EFD3
     音轨在 AccurateRip 数据库中无记录
     复制成功

音轨 13

     文件名 K:\音乐\动画基地\第06期\霜之卷\13 音轨13 - 未知艺术家.wav

     峰值电平 100.0 %
     抓取速度 0.9 X
     音轨质量 99.8 %
     复制 CRC 998A4B3D
     音轨在 AccurateRip 数据库中无记录
     复制成功

音轨 14

     文件名 K:\音乐\动画基地\第06期\霜之卷\14 音轨14 - 未知艺术家.wav

     峰值电平 100.0 %
     抓取速度 1.0 X
     音轨质量 99.8 %
     复制 CRC 74E01D65
     音轨在 AccurateRip 数据库中无记录
     复制成功

音轨 15

     文件名 K:\音乐\动画基地\第06期\霜之卷\15 音轨15 - 未知艺术家.wav

     峰值电平 100.0 %
     抓取速度 1.6 X
     音轨质量 100.0 %
     复制 CRC D18C440D
     音轨在 AccurateRip 数据库中无记录
     复制成功

音轨 16

     文件名 K:\音乐\动画基地\第06期\霜之卷\16 音轨16 - 未知艺术家.wav

     峰值电平 100.0 %
     抓取速度 1.5 X
     音轨质量 100.0 %
     复制 CRC 8736B1F8
     音轨在 AccurateRip 数据库中无记录
     复制成功


没有任何音轨在 AccurateRip 数据库中有记录

没有错误发生

状态报告结尾

---- CUETools DB Plugin V2.1.6

[CTDB TOCID: 5f8Ed1H5.B.9QAX3qQrNcCSUcng-] disk not present in database
Submit result: 5f8Ed1H5.B.9QAX3qQrNcCSUcng- has been uploaded

0

主题

22

帖子

78

积分

新人会员,请认真回复,若恶意回复,直接封号

Rank: 1

积分
78

社区QQ达人

发表于 2017-11-4 21:52:10 | 显示全部楼层
谢谢楼主的分享




0

主题

73

帖子

142

积分

新人会员,请认真回复,若恶意回复,直接封号

Rank: 1

积分
142
发表于 2017-11-5 22:30:49 | 显示全部楼层
好多犬夜叉的主题曲,赞~~
您需要登录后才可以回帖 登录 | 注册

本版积分规则

快速回复 返回顶部 返回列表