最近看过此主题的会员

查看: 134|回复: 2

原抓《电新DVD》VOL.39 CD WAV/分轨/度盘 附DVD

[复制链接]
 成长值: 4545

213

主题

1076

帖子

5万

积分

VIP4

Rank: 7Rank: 7Rank: 7

积分
55608
发表于 2017-10-13 14:20:25 | 显示全部楼层 |阅读模式

注册会员,获得无损资源下载地址,享受高品质音乐。

您需要 登录 才可以下载或查看,没有帐号?注册

x
IMG_20171013_103739_1.jpg
大家好!我杂志狂人龙王机又回来了!国庆期间光弄《动感新势力》的合辑了,这次都弄完了,我就接着发《电玩新势力》的资源了!这期的CD是“游戏圣诞金曲精选”,歌单在下面,我听了一下这张CD,还可以,有不少动听的好歌,大家喜欢就收吧。
01 JINGLE BELL(莎木版)
02 回旋的世界中---红线 主题曲
03 旅途的尽头---红线 片尾曲
04 Snake Eater---合金装备3 主题曲
05 CASTLE IMITATION---龙战士V 主题曲
06 恶魔猎人主题音乐(八音盒)
07 星星所在的地方---英雄传说6 主题曲
08 Dream On---死或生 极限 主题曲
09 another sky---新天魔界~混沌时代4 片头曲
10 fade away---新天魔界~混沌时代 片尾曲
11 This may be the last time we can meet---秋之回忆 片尾曲
12 Blurry---皇牌空战V 主题曲
13 JINGLE BELL(梦精灵版)

DVD游戏金曲MV:
这期没有咯。

DVD ROM:
DOOM3官方授权PC试玩版
《北欧女神传》精选MP3
magnacarta超精美壁纸
《街霸》主题手机铃声
《合金装备》系列手机图片

CD in DVD:
合金装备3

CD链接:
游客,如果您要查看本帖隐藏内容请回复

密码:
游客,如果您要查看本帖隐藏内容请回复

DVD链接:
游客,如果您要查看本帖隐藏内容请回复

密码:
游客,如果您要查看本帖隐藏内容请回复

解压密码均为:此资源来自于CD包音乐论坛

有什么错误私信我哦,我会第一时间修正。



上一篇:原抓《电新DVD》VOL.38 CD WAV/分轨/度盘 附DVD
下一篇:原抓《电新DVD》VOL.40 CD WAV/分轨/度盘 附DVD
 成长值: 4545

213

主题

1076

帖子

5万

积分

VIP4

Rank: 7Rank: 7Rank: 7

积分
55608
发表于 2017-10-13 14:20:38 | 显示全部楼层
Exact Audio Copy V1.1 from 23. June 2015

EAC 抓取日志文件从12. 十月 2017, 9:32

未知艺术家 / 未知标题

使用驱动器  :SONY    DVD RW DRU-V200A   Adapter: 1  ID: 1

读取模式      : 可靠Secure
使用精确流     : 是
清空音频缓存    : 否
使用 C2 指示器 : 是

读取偏移校正:               : 48
读取 Lead-In 和 Lead-Out : 否
用静音填充抓取中丢失偏移的采样       : 是
去除首尾静音块               : 否
在CRC 计算中使用了空样本       : 是
已用接口                  : Win NT 及 2000 本地 Win32 接口
间隙处理                  : 没检测到,因此追加到上一曲目

所用输出模式: : 内部 WAV 函数
样本格式    : 44.100 Hz; 16 Bit; 立体声


已抓取 CD 的 TOC

     音轨 |    起始    |    长度    |  起始扇区  |  结束扇区  
    --------------------------------------------
      1 |  0:00.00 |  2:24.45 |      0 |  10844
      2 |  2:24.45 |  4:17.41 |  10845 |  30160
      3 |  6:42.11 |  5:30.13 |  30161 |  54923
      4 | 12:12.24 |  6:36.55 |  54924 |  84678
      5 | 18:49.04 |  5:16.50 |  84679 | 108428
      6 | 24:05.54 |  0:57.70 | 108429 | 112773
      7 | 25:03.49 |  3:03.68 | 112774 | 126566
      8 | 28:07.42 |  4:27.43 | 126567 | 146634
      9 | 32:35.10 |  4:18.62 | 146635 | 166046
     10 | 36:53.72 |  3:56.35 | 166047 | 183781
     11 | 40:50.32 |  4:28.05 | 183782 | 203886
     12 | 45:18.37 |  5:06.57 | 203887 | 226893
     13 | 50:25.19 |  2:10.49 | 226894 | 236692


音轨  1

     文件名 K:\音乐\电玩新势力\VOL.39\学习资料39\01 Track01 - 未知艺术家.wav

     峰值电平 69.7 %
     抓取速度 3.6 X
     音轨质量 100.0 %
     复制 CRC 9255B7CC
     音轨在 AccurateRip 数据库中无记录
     复制成功

音轨  2

     文件名 K:\音乐\电玩新势力\VOL.39\学习资料39\02 Track02 - 未知艺术家.wav

     峰值电平 100.0 %
     抓取速度 3.9 X
     音轨质量 100.0 %
     复制 CRC 08967A76
     音轨在 AccurateRip 数据库中无记录
     复制成功

音轨  3

     文件名 K:\音乐\电玩新势力\VOL.39\学习资料39\03 Track03 - 未知艺术家.wav

     峰值电平 100.0 %
     抓取速度 4.0 X
     音轨质量 100.0 %
     复制 CRC F3D3ADBF
     音轨在 AccurateRip 数据库中无记录
     复制成功

音轨  4

     文件名 K:\音乐\电玩新势力\VOL.39\学习资料39\04 Track04 - 未知艺术家.wav

     峰值电平 91.1 %
     抓取速度 3.8 X
     音轨质量 99.9 %
     复制 CRC D8314808
     音轨在 AccurateRip 数据库中无记录
     复制成功

音轨  5

     文件名 K:\音乐\电玩新势力\VOL.39\学习资料39\05 Track05 - 未知艺术家.wav

     峰值电平 100.0 %
     抓取速度 3.8 X
     音轨质量 100.0 %
     复制 CRC A19C2D35
     音轨在 AccurateRip 数据库中无记录
     复制成功

音轨  6

     文件名 K:\音乐\电玩新势力\VOL.39\学习资料39\06 Track06 - 未知艺术家.wav

     峰值电平 70.0 %
     抓取速度 3.3 X
     音轨质量 100.0 %
     复制 CRC 849643D8
     音轨在 AccurateRip 数据库中无记录
     复制成功

音轨  7

     文件名 K:\音乐\电玩新势力\VOL.39\学习资料39\07 Track07 - 未知艺术家.wav

     峰值电平 80.0 %
     抓取速度 3.9 X
     音轨质量 100.0 %
     复制 CRC DCEB00BF
     音轨在 AccurateRip 数据库中无记录
     复制成功

音轨  8

     文件名 K:\音乐\电玩新势力\VOL.39\学习资料39\08 Track08 - 未知艺术家.wav

     峰值电平 100.0 %
     抓取速度 3.8 X
     音轨质量 100.0 %
     复制 CRC AC993D0F
     音轨在 AccurateRip 数据库中无记录
     复制成功

音轨  9

     文件名 K:\音乐\电玩新势力\VOL.39\学习资料39\09 Track09 - 未知艺术家.wav

     峰值电平 100.0 %
     抓取速度 3.9 X
     音轨质量 100.0 %
     复制 CRC EE019C11
     音轨在 AccurateRip 数据库中无记录
     复制成功

音轨 10

     文件名 K:\音乐\电玩新势力\VOL.39\学习资料39\10 Track10 - 未知艺术家.wav

     峰值电平 100.0 %
     抓取速度 4.0 X
     音轨质量 100.0 %
     复制 CRC 4E6E41D0
     音轨在 AccurateRip 数据库中无记录
     复制成功

音轨 11

     文件名 K:\音乐\电玩新势力\VOL.39\学习资料39\11 Track11 - 未知艺术家.wav

     峰值电平 100.0 %
     抓取速度 3.9 X
     音轨质量 100.0 %
     复制 CRC 12D66AAB
     音轨在 AccurateRip 数据库中无记录
     复制成功

音轨 12

     文件名 K:\音乐\电玩新势力\VOL.39\学习资料39\12 Track12 - 未知艺术家.wav

     峰值电平 80.0 %
     抓取速度 3.8 X
     音轨质量 100.0 %
     复制 CRC F316B125
     音轨在 AccurateRip 数据库中无记录
     复制成功

音轨 13

     文件名 K:\音乐\电玩新势力\VOL.39\学习资料39\13 Track13 - 未知艺术家.wav

     峰值电平 100.0 %
     抓取速度 3.6 X
     音轨质量 99.8 %
     复制 CRC C2FC9A3A
     音轨在 AccurateRip 数据库中无记录
     复制成功


没有任何音轨在 AccurateRip 数据库中有记录

没有错误发生

状态报告结尾

---- CUETools DB Plugin V2.1.6

[CTDB TOCID: dzCEm7v5CTghQFRi3Jgr6P8k7i4-] disk not present in database
Submit result: dzCEm7v5CTghQFRi3Jgr6P8k7i4- has been uploaded

0

主题

477

帖子

920

积分

职业歌手

Rank: 3Rank: 3

积分
920
发表于 5 天前 | 显示全部楼层
感谢楼主分享 很喜欢这个系列
您需要登录后才可以回帖 登录 | 注册

本版积分规则

快速回复 返回顶部 返回列表