最近看过此主题的会员

查看: 112|回复: 1

原抓《动感新时代》VOL.110 CD WAV/分轨/度盘 附DVD

[复制链接]
 成长值: 3135

156

主题

734

帖子

3万

积分

VIP3

Rank: 6Rank: 6

积分
36452
发表于 7 天前 | 显示全部楼层 |阅读模式

注册会员,获得无损资源下载地址,享受高品质音乐。

您需要 登录 才可以下载或查看,没有帐号?注册

x
IMG_20170715_132223_1.jpg
喜闻乐见,正片DVD又挂了。所以我就把附赠的剧场版DVD的镜像抓下来咯,其中的内容是《剧场版 天降之物 计时的悲伤女神》和《对某个飞行员的追忆》,没看过并且有爱的就收吧。
第110期 夢花
01.TV动画「在盛夏等待」ED「彩色玻璃模样[ビードロ模様]」
02.TV动画「灼眼的夏娜III」ED2「ONE」
03.TV动画「AQUARION EVOL」OP「你的神话~AQUARION第二章[君の神話~アクエリオン第二章]」
04.TV动画「AQUARION EVOL」ED「月光交响曲[月光シンフォニア]」
05.TV动画「Another」OP「凶梦传染[凶夢伝染]」
06.TV动画「Another」ED「anamnesis」
07.剧场版「萤火之森」BGM「蝉鸣如雨[かなかなしぐれ]」
08.TV动画「夏目友人账 肆」OP「此时,此刻[今、このとき。]」
09.TV动画「夏目友人账 肆」ED「宝物[たからもの]」
10.TV动画「银魂」ED20「朋友[仲間]」
11.TV动画「未来日记」ED2「filament」
12.TV动画「嫉妒狂想曲」TM2「嫉妒随想曲★[やきもちカプリス★]」
13.剧场版「.hack//The Movie 世界的另一边」TM「汇聚曙光[光をあつめて]」
14.虚拟偶像企划“LoveLive!”4th单曲「满怀爱意接近中![もぎゅっと“love”で接近中!]」



CD链接:
游客,如果您要查看本帖隐藏内容请回复

密码:
游客,如果您要查看本帖隐藏内容请回复

剧场版DVD链接:
游客,如果您要查看本帖隐藏内容请回复

密码:
游客,如果您要查看本帖隐藏内容请回复

解压密码均为:此资源来自于CD包音乐论坛


Exact Audio Copy V1.1 from 23. June 2015


EAC 抓取日志文件从14. 七月 2017, 18:58


未知艺术家 / 未知标题


使用驱动器  :SONY    CD-RW  CRX230E   Adapter: 1  ID: 0


读取模式      : 可靠Secure
使用精确流     : 是
清空音频缓存    : 是
使用 C2 指示器 : 是


读取偏移校正:               : 6
读取 Lead-In 和 Lead-Out : 否
用静音填充抓取中丢失偏移的采样       : 是
去除首尾静音块               : 否
在CRC 计算中使用了空样本       : 是
已用接口                  : Win NT 及 2000 本地 Win32 接口
间隙处理                  : 没检测到,因此追加到上一曲目


所用输出模式: : 内部 WAV 函数
样本格式    : 44.100 Hz; 16 Bit; 立体声




已抓取 CD 的 TOC


     音轨 |    起始    |    长度    |  起始扇区  |  结束扇区  
    --------------------------------------------
      1 |  0:00.00 |  4:52.00 |      0 |  21899
      2 |  4:52.00 |  5:10.68 |  21900 |  45217
      3 | 10:02.68 |  5:30.37 |  45218 |  70004
      4 | 15:33.30 |  3:53.00 |  70005 |  87479
      5 | 19:26.30 |  4:26.00 |  87480 | 107429
      6 | 23:52.30 |  5:38.00 | 107430 | 132779
      7 | 29:30.30 |  3:46.00 | 132780 | 149729
      8 | 33:16.30 |  4:51.00 | 149730 | 171554
      9 | 38:07.30 |  5:06.00 | 171555 | 194504
     10 | 43:13.30 |  4:44.00 | 194505 | 215804
     11 | 47:57.30 |  4:18.37 | 215805 | 235191
     12 | 52:15.67 |  3:44.00 | 235192 | 251991
     13 | 55:59.67 |  4:58.37 | 251992 | 274378
     14 | 60:58.29 |  5:41.11 | 274379 | 299964




音轨  1


     文件名 K:\音乐\动感新势力\VOL.110\学习资料\01 音轨01 - 未知艺术家.wav


     峰值电平 99.9 %
     抓取速度 1.6 X
     音轨质量 100.0 %
     复制 CRC C0302EC1
     精确校准地抓取  1)  [557C46B3]  (AR v2)
     复制成功


音轨  2


     文件名 K:\音乐\动感新势力\VOL.110\学习资料\02 音轨02 - 未知艺术家.wav


     峰值电平 100.0 %
     抓取速度 1.6 X
     音轨质量 100.0 %
     复制 CRC 2BDB9A62
     精确校准地抓取  1)  [C8870BAF]  (AR v2)
     复制成功


音轨  3


     文件名 K:\音乐\动感新势力\VOL.110\学习资料\03 音轨03 - 未知艺术家.wav


     峰值电平 98.8 %
     抓取速度 1.6 X
     音轨质量 100.0 %
     复制 CRC C71B4555
     音轨在 AccurateRip 数据库中无记录
     复制成功


音轨  4


     文件名 K:\音乐\动感新势力\VOL.110\学习资料\04 音轨04 - 未知艺术家.wav


     峰值电平 98.8 %
     抓取速度 1.5 X
     音轨质量 100.0 %
     复制 CRC 7E2259FE
     音轨在 AccurateRip 数据库中无记录
     复制成功


音轨  5


     文件名 K:\音乐\动感新势力\VOL.110\学习资料\05 音轨05 - 未知艺术家.wav


     峰值电平 98.8 %
     抓取速度 1.6 X
     音轨质量 100.0 %
     复制 CRC 37CCD610
     音轨在 AccurateRip 数据库中无记录
     复制成功


音轨  6


     文件名 K:\音乐\动感新势力\VOL.110\学习资料\06 音轨06 - 未知艺术家.wav


     峰值电平 100.0 %
     抓取速度 1.6 X
     音轨质量 100.0 %
     复制 CRC 23CCEFC0
     音轨在 AccurateRip 数据库中无记录
     复制成功


音轨  7


     文件名 K:\音乐\动感新势力\VOL.110\学习资料\07 音轨07 - 未知艺术家.wav


     峰值电平 74.1 %
     抓取速度 1.5 X
     音轨质量 100.0 %
     复制 CRC 487444C8
     精确校准地抓取  1)  [B1074755]  (AR v2)
     复制成功


音轨  8


     文件名 K:\音乐\动感新势力\VOL.110\学习资料\08 音轨08 - 未知艺术家.wav


     峰值电平 100.0 %
     抓取速度 1.6 X
     音轨质量 100.0 %
     复制 CRC BE15A42D
     音轨在 AccurateRip 数据库中无记录
     复制成功


音轨  9


     文件名 K:\音乐\动感新势力\VOL.110\学习资料\09 音轨09 - 未知艺术家.wav


     峰值电平 99.9 %
     抓取速度 1.6 X
     音轨质量 100.0 %
     复制 CRC 10DFD3A1
     精确校准地抓取  1)  [F08D4A89]  (AR v2)
     复制成功


音轨 10


     文件名 K:\音乐\动感新势力\VOL.110\学习资料\10 音轨10 - 未知艺术家.wav


     峰值电平 99.9 %
     抓取速度 1.6 X
     音轨质量 100.0 %
     复制 CRC 14FED03B
     音轨在 AccurateRip 数据库中无记录
     复制成功


音轨 11


     文件名 K:\音乐\动感新势力\VOL.110\学习资料\11 音轨11 - 未知艺术家.wav


     峰值电平 99.9 %
     抓取速度 1.5 X
     音轨质量 100.0 %
     复制 CRC 97BDD713
     音轨在 AccurateRip 数据库中无记录
     复制成功


音轨 12


     文件名 K:\音乐\动感新势力\VOL.110\学习资料\12 音轨12 - 未知艺术家.wav


     峰值电平 99.7 %
     抓取速度 1.2 X
     音轨质量 99.9 %
     复制 CRC 3CED6A46
     音轨在 AccurateRip 数据库中无记录
     复制成功


音轨 13


     文件名 K:\音乐\动感新势力\VOL.110\学习资料\13 音轨13 - 未知艺术家.wav


     峰值电平 95.4 %
     抓取速度 1.6 X
     音轨质量 100.0 %
     复制 CRC D4B215A0
     音轨在 AccurateRip 数据库中无记录
     复制成功


音轨 14


     文件名 K:\音乐\动感新势力\VOL.110\学习资料\14 音轨14 - 未知艺术家.wav


     峰值电平 100.0 %
     抓取速度 1.6 X
     音轨质量 100.0 %
     复制 CRC 5AEA589E
     音轨在 AccurateRip 数据库中无记录
     复制成功




4 音轨精确校准抓取
10 音轨在 AccurateRip 数据库中无记录


一些音轨不能准确地校验


没有错误发生


状态报告结尾


---- CUETools DB Plugin V2.1.6


[CTDB TOCID: 07CYiTZwE_3o75Wmjf_4sn.OlWY-] found
Submit result: 07CYiTZwE_3o75Wmjf_4sn.OlWY- has been confirmed
Track | CTDB Status
  1   | (4/4) Accurately ripped
  2   | (4/4) Accurately ripped
  3   | (4/4) Accurately ripped
  4   | (4/4) Accurately ripped
  5   | (4/4) Accurately ripped
  6   | (4/4) Accurately ripped
  7   | (4/4) Accurately ripped
  8   | (4/4) Accurately ripped
  9   | (4/4) Accurately ripped
10   | (4/4) Accurately ripped
11   | (4/4) Accurately ripped
12   | (4/4) Accurately ripped
13   | (4/4) Accurately ripped
14   | (4/4) Accurately ripped




评分

参与人数 1CD +320 收起 理由
最终之战 + 320 感谢分享资源,CD包因你而精彩.

查看全部评分




上一篇:原抓《动感新时代》VOL.109 CD WAV/分轨/度盘 附DVD
下一篇:原抓《动感新时代》VOL.111 CD WAV/分轨/度盘 附DVD

0

主题

24

帖子

90

积分

新人会员,请认真回复,若恶意回复,直接封号

Rank: 1

积分
90
发表于 昨天 18:54 | 显示全部楼层
膜拜大神,好久没听动感新势力了
您需要登录后才可以回帖 登录 | 注册

本版积分规则

快速回复 返回顶部 返回列表