最近看过此主题的会员

查看: 506|回复: 1

原抓《动感新时代》VOL.109 CD WAV/分轨/度盘 附DVD

[复制链接]
 成长值: 4965

229

主题

1161

帖子

5万

积分

VIP4

Rank: 7Rank: 7Rank: 7

积分
59130
发表于 2017-7-13 18:01:53 | 显示全部楼层 |阅读模式

注册会员,获得无损资源下载地址,享受高品质音乐。

您需要 登录 才可以下载或查看,没有帐号?注册

x
本帖最后由 龙王机 于 2017-7-13 18:11 编辑

IMG_20170713_173023_1.jpg
各位注意!从这期开始,以后我发的资源解压密码全部改变了!改变了!改变了!重要的事情说三遍!至于是什么密码,大家请看链接地址的下面。以前的解压密码还是:www.cdbao.net  这期是两张DVD,多出来的一张是动感新时代2010全年的MTV合辑,有爱的就收吧。
第109期 消雪
01.TV动画「在盛夏等待」OP「sign」
02.TV动画「伪物语」ED「不告诉你的秘密[ナイショの話]」
03.TV动画「轮回的拉格朗日」OP「TRY UNITE!」
04.TV动画「轮回的拉格朗日」ED「Hello!」
05.TV动画「零之使魔F」ED「人家才不要吻你[キスシテ↑アゲナイ↓]」
06.TV动画「灼眼的夏娜III」OP2「Serment」
07.TV动画「爱杀宝贝」ED「两人的心情的真正的秘密[ふたりのきもちのほんとのひみつ]」
08.TV动画「罪恶王冠」IN「β?ο?」
09.TV动画「罪恶王冠」IN「close your eyes」
10.TV动画「罪恶王冠」IN「Release My Soul」
11.TV动画「罪恶王冠」IN「Hill Of Sorrow」
12.TV动画「罪恶王冠」IN「Home ~in this corner~」
13.TV动画「花牌情缘」BGM「花牌团队[チームちはやふる]」
14.TV动画「战姬绝唱」IN「逆光的羽翼[逆光のフリューゲル]」
15.TV动画「机动战士高达AGE」IN「Memorial days」


DVD MTV:
My Dearest------罪恶王冠 片头曲
空想神话------未来日记 片头曲
不告诉你的秘密------伪物语 片尾曲
TRY UNITE!------轮回的拉格朗日 片头曲


CD链接:
游客,如果您要查看本帖隐藏内容请回复
密码:
游客,如果您要查看本帖隐藏内容请回复

DVD链接:
游客,如果您要查看本帖隐藏内容请回复

密码:
游客,如果您要查看本帖隐藏内容请回复

2010MTV合辑:
游客,如果您要查看本帖隐藏内容请回复

密码:
游客,如果您要查看本帖隐藏内容请回复

解压密码均为:此资源来自于CD包音乐论坛


Exact Audio Copy V1.1 from 23. June 2015


EAC 抓取日志文件从11. 七月 2017, 18:13


AnimeNewType / 动感新时代


使用驱动器  :SONY    DVD RW DRU-V200A   Adapter: 1  ID: 1


读取模式      : 可靠Secure
使用精确流     : 是
清空音频缓存    : 否
使用 C2 指示器 : 是


读取偏移校正:               : 48
读取 Lead-In 和 Lead-Out : 否
用静音填充抓取中丢失偏移的采样       : 是
去除首尾静音块               : 否
在CRC 计算中使用了空样本       : 是
已用接口                  : Win NT 及 2000 本地 Win32 接口
间隙处理                  : 没检测到,因此追加到上一曲目


所用输出模式: : 内部 WAV 函数
样本格式    : 44.100 Hz; 16 Bit; 立体声




已抓取 CD 的 TOC


     音轨 |    起始    |    长度    |  起始扇区  |  结束扇区  
    --------------------------------------------
      1 |  0:00.00 |  4:47.40 |      0 |  21564
      2 |  4:47.40 |  4:22.37 |  21565 |  41251
      3 |  9:10.02 |  4:22.37 |  41252 |  60938
      4 | 13:32.39 |  4:39.00 |  60939 |  81863
      5 | 18:11.39 |  4:02.24 |  81864 | 100037
      6 | 22:13.63 |  4:12.57 | 100038 | 118994
      7 | 26:26.45 |  2:58.00 | 118995 | 132344
      8 | 29:24.45 |  4:38.66 | 132345 | 153260
      9 | 34:03.36 |  3:55.00 | 153261 | 170885
     10 | 37:58.36 |  4:38.00 | 170886 | 191735
     11 | 42:36.36 |  4:15.39 | 191736 | 210899
     12 | 46:52.00 |  3:51.40 | 210900 | 228264
     13 | 50:43.40 |  2:57.00 | 228265 | 241539
     14 | 53:40.40 |  5:14.00 | 241540 | 265089
     15 | 58:54.40 |  4:06.12 | 265090 | 283551




音轨  1


     文件名 K:\音乐\动感新势力\VOL.109\学习资料\01 「在盛夏等待」OP「sign」 - Ray.wav


     峰值电平 100.0 %
     抓取速度 3.8 X
     音轨质量 100.0 %
     复制 CRC F526B3B4
     精确校准地抓取  2)  [C1492C24]  (AR v2)
     复制成功


音轨  2


     文件名 K:\音乐\动感新势力\VOL.109\学习资料\02 「伪物语」ED「不告诉你的秘密」 - ClariS.wav


     峰值电平 99.9 %
     抓取速度 3.8 X
     音轨质量 100.0 %
     复制 CRC 679B40E1
     精确校准地抓取  1)  [AE871812]  (AR v2)
     复制成功


音轨  3


     文件名 K:\音乐\动感新势力\VOL.109\学习资料\03 「轮回的拉格朗日」OP「TRY UNITE!」 - 中岛爱.wav


     峰值电平 98.8 %
     抓取速度 3.8 X
     音轨质量 100.0 %
     复制 CRC 6269A181
     精确校准地抓取  2)  [375B62B8]  (AR v2)
     复制成功


音轨  4


     文件名 K:\音乐\动感新势力\VOL.109\学习资料\04 「轮回的拉格朗日」ED「Hello!」 - 中岛爱.wav


     峰值电平 95.5 %
     抓取速度 3.8 X
     音轨质量 100.0 %
     复制 CRC 240A97AF
     精确校准地抓取  1)  [87E13A5B]  (AR v2)
     复制成功


音轨  5


     文件名 K:\音乐\动感新势力\VOL.109\学习资料\05 「零之使魔F」ED「人家才不要吻你」 - 钉宫理惠.wav


     峰值电平 97.7 %
     抓取速度 3.9 X
     音轨质量 100.0 %
     复制 CRC 27115797
     精确校准地抓取  1)  [0098A322]  (AR v2)
     复制成功


音轨  6


     文件名 K:\音乐\动感新势力\VOL.109\学习资料\06 「灼眼的夏娜III」OP2「Serment」 - 川田麻美.wav


     峰值电平 100.0 %
     抓取速度 4.0 X
     音轨质量 100.0 %
     复制 CRC 1ECECE5C
     精确校准地抓取  1)  [5F392DC7]  (AR v2)
     复制成功


音轨  7


     文件名 K:\音乐\动感新势力\VOL.109\学习资料\07 「爱杀宝贝」ED「两人的心情的真正的秘密」 - 赤﨑千夏,田村睦心.wav


     峰值电平 99.2 %
     抓取速度 3.8 X
     音轨质量 100.0 %
     复制 CRC 591E1820
     精确校准地抓取  1)  [E9AD3552]  (AR v2)
     复制成功


音轨  8


     文件名 K:\音乐\动感新势力\VOL.109\学习资料\08 「罪恶王冠」IN「βios」 - 小林未郁.wav


     峰值电平 99.4 %
     抓取速度 3.9 X
     音轨质量 100.0 %
     复制 CRC 37CC61A5
     精确校准地抓取  1)  [EF806C6C]  (AR v2)
     复制成功


音轨  9


     文件名 K:\音乐\动感新势力\VOL.109\学习资料\09 「罪恶王冠」IN「close your eyes」 - 本田みちよ.wav


     峰值电平 99.4 %
     抓取速度 3.9 X
     音轨质量 100.0 %
     复制 CRC C449821E
     精确校准地抓取  1)  [65A069EE]  (AR v2)
     复制成功


音轨 10


     文件名 K:\音乐\动感新势力\VOL.109\学习资料\10 「罪恶王冠」IN「Release My Soul」 - Aimee Blackschleger.wav


     峰值电平 99.4 %
     抓取速度 3.9 X
     音轨质量 100.0 %
     复制 CRC 25389D32
     精确校准地抓取  1)  [BC36E65B]  (AR v2)
     复制成功


音轨 11


     文件名 K:\音乐\动感新势力\VOL.109\学习资料\11 「罪恶王冠」IN「Hill Of Sorrow」 - mpi.wav


     峰值电平 99.4 %
     抓取速度 3.8 X
     音轨质量 100.0 %
     复制 CRC 907AD363
     精确校准地抓取  1)  [6D14D491]  (AR v2)
     复制成功


音轨 12


     文件名 K:\音乐\动感新势力\VOL.109\学习资料\12 「罪恶王冠」IN「Home ~in this corner~」 - Leina.wav


     峰值电平 99.3 %
     抓取速度 3.8 X
     音轨质量 100.0 %
     复制 CRC 742C46A0
     精确校准地抓取  1)  [5B1B1E6A]  (AR v2)
     复制成功


音轨 13


     文件名 K:\音乐\动感新势力\VOL.109\学习资料\13 「花牌情缘」BGM「花牌团队」 - 山下康介.wav


     峰值电平 99.9 %
     抓取速度 3.9 X
     音轨质量 100.0 %
     复制 CRC EBD301E7
     精确校准地抓取  1)  [73D64234]  (AR v2)
     复制成功


音轨 14


     文件名 K:\音乐\动感新势力\VOL.109\学习资料\14 「战姬绝唱」IN「逆光的羽翼」 - ZWEI WING(水樹奈奈+高山南).wav


     峰值电平 98.8 %
     抓取速度 4.0 X
     音轨质量 100.0 %
     复制 CRC DF82E4BE
     精确校准地抓取  2)  [B7A12554]  (AR v2)
     复制成功


音轨 15


     文件名 K:\音乐\动感新势力\VOL.109\学习资料\15 「机动战士高达AGE」IN「Memorial days」 - KOKIA.wav


     峰值电平 95.5 %
     抓取速度 3.9 X
     音轨质量 100.0 %
     复制 CRC 3CDAF160
     精确校准地抓取  2)  [B6E59934]  (AR v2)
     复制成功




所有音轨精确校准抓取


没有错误发生


状态报告结尾


---- CUETools DB Plugin V2.1.6


[CTDB TOCID: Fat.XwPH6FhtkuFwbRvYmB62ddA-] found
Submit result: Fat.XwPH6FhtkuFwbRvYmB62ddA- has been confirmed
Track | CTDB Status
  1   | (1/1) Accurately ripped
  2   | (1/1) Accurately ripped
  3   | (1/1) Accurately ripped
  4   | (1/1) Accurately ripped
  5   | (1/1) Accurately ripped
  6   | (1/1) Accurately ripped
  7   | (1/1) Accurately ripped
  8   | (1/1) Accurately ripped
  9   | (1/1) Accurately ripped
10   | (1/1) Accurately ripped
11   | (1/1) Accurately ripped
12   | (1/1) Accurately ripped
13   | (1/1) Accurately ripped
14   | (1/1) Accurately ripped
15   | (1/1) Accurately ripped


评分

参与人数 1CD +320 收起 理由
最终之战 + 320 感谢分享资源,CD包因你而精彩.

查看全部评分




上一篇:回转企鹅罐「輪るピングドラムOPED,OST,特典《11CD》2.46GB
下一篇:原抓《动感新时代》VOL.110 CD WAV/分轨/度盘 附DVD

0

主题

318

帖子

859

积分

职业歌手

Rank: 3Rank: 3

积分
859

社区QQ达人

发表于 2017-8-5 16:30:59 | 显示全部楼层
这个必须要收 谢谢分享
您需要登录后才可以回帖 登录 | 注册

本版积分规则

快速回复 返回顶部 返回列表