最近看过此主题的会员

查看: 256|回复: 3

原抓《动感新时代》VOL.106 CD WAV/分轨/度盘 附DVD

[复制链接]
 成长值: 3135

156

主题

734

帖子

3万

积分

VIP3

Rank: 6Rank: 6

积分
36452
发表于 2017-6-23 18:22:10 | 显示全部楼层 |阅读模式

注册会员,获得无损资源下载地址,享受高品质音乐。

您需要 登录 才可以下载或查看,没有帐号?注册

x
IMG_20170620_135903_1.jpg
咳咳,皆さん こにちわ!那啥,因为一些个人的原因,我暂时要离开论坛半年,感谢大家一直以来对我所发帖子的回复!本来我还有好多资源打算共享给大家的,可惜人算不如天算啊(这算啥理由)!就是这么回事,所以我半年内都不能发资源啦!等我回来,我会把剩下的碟子,还有传说中的大包都给你们的。所以一些心急的朋友先把我以前发的资源都下全了吧(奸笑)。废话说完了,然后说说这期,这期的DVD正碟又挂啦(逃)!而且不是读取困难,而是根本读不出来,所以我也没办法啦(根本就是保存不当吧)!不过,好在附赠的DVD,也就是著名声优May'n,超时空要塞F里的女王大人雪路的真人演唱会没挂,所以也算是将功补过了。顺便一提,DVD里还有超时空要塞F的剧场版“恋离飞翼”哦!还记得那句台词吗?“大家啊,都成为我的翅膀吧!”
第106期 寒泉
01.剧场版「MACROSS F 恋离飞翼」IN「禁断的炼金术[禁断のエリクシア]」
02.剧场版「マクロスF 恋离飞翼」IN「虹色熊熊[虹いろ クマクマ]」
03.TV动画「幸福光斑~一年~」OP「欢迎回来[おかえりなさい]」
04.TV动画「幸福光斑~一年~」ED「神的恶作剧[神様のいたずら]」
05.TV动画「Fate/Zero」ED「MEMORIA」
06.TV动画「境界线上的地平线」OP「TERMINATED」
07.TV动画「最终流放 -银翼之法姆-」OP「Buddy」
08.TV动画「滑头鬼之孙~千年魔京~」ED2「Departure」
09.TV动画「回转企鹅罐」OP2「少年啊回归我怀[少年よ我に帰れ]」
10.TV动画「侵略!?乌贼娘」OP「HIGH POWERED」
11.TV动画「食梦者2」ED「monochrome rainbow」
12.TV动画「C3 -魔幻三次方-」OP「Endless Story」
13.TV动画「纯白交响曲」OP「Authentic symphony」
14.PSP游戏「FINAL FANTASY 零式」TM「零[ゼロ]」



CD链接:
游客,如果您要查看本帖隐藏内容请回复

密码:
游客,如果您要查看本帖隐藏内容请回复

DVD链接:
游客,如果您要查看本帖隐藏内容请回复

密码:
游客,如果您要查看本帖隐藏内容请回复

解压密码均为www.cdbao.net


Exact Audio Copy V1.1 from 23. June 2015


EAC 抓取日志文件从19. 六月 2017, 12:19


未知艺术家 / 未知标题


使用驱动器  :SONY    DVD RW DRU-V200A   Adapter: 1  ID: 1


读取模式      : 可靠Secure
使用精确流     : 是
清空音频缓存    : 否
使用 C2 指示器 : 是


读取偏移校正:               : 48
读取 Lead-In 和 Lead-Out : 否
用静音填充抓取中丢失偏移的采样       : 是
去除首尾静音块               : 否
在CRC 计算中使用了空样本       : 是
已用接口                  : Win NT 及 2000 本地 Win32 接口
间隙处理                  : 没检测到,因此追加到上一曲目


所用输出模式: : 内部 WAV 函数
样本格式    : 44.100 Hz; 16 Bit; 立体声




已抓取 CD 的 TOC


     音轨 |    起始    |    长度    |  起始扇区  |  结束扇区  
    --------------------------------------------
      1 |  0:00.00 |  5:21.00 |      0 |  24074
      2 |  5:21.00 |  4:56.65 |  24075 |  46339
      3 | 10:17.65 |  5:10.00 |  46340 |  69589
      4 | 15:27.65 |  4:33.35 |  69590 |  90099
      5 | 20:01.25 |  4:52.33 |  90100 | 112032
      6 | 24:53.58 |  4:21.05 | 112033 | 131612
      7 | 29:14.63 |  4:05.34 | 131613 | 150021
      8 | 33:20.22 |  4:26.30 | 150022 | 170001
      9 | 37:46.52 |  6:28.47 | 170002 | 199148
     10 | 44:15.24 |  4:29.61 | 199149 | 219384
     11 | 48:45.10 |  4:13.42 | 219385 | 238401
     12 | 52:58.52 |  3:50.15 | 238402 | 255666
     13 | 56:48.67 |  4:33.36 | 255667 | 276177
     14 | 61:22.28 |  6:52.70 | 276178 | 307147




音轨  1


     文件名 K:\音乐\动感新势力\VOL.106\学习资料\01 音轨01 - 未知艺术家.wav


     峰值电平 93.3 %
     抓取速度 3.9 X
     音轨质量 100.0 %
     复制 CRC B870E583
     精确校准地抓取  1)  [E6697D81]  (AR v2)
     复制成功


音轨  2


     文件名 K:\音乐\动感新势力\VOL.106\学习资料\02 音轨02 - 未知艺术家.wav


     峰值电平 92.3 %
     抓取速度 3.8 X
     音轨质量 100.0 %
     复制 CRC 04224AFA
     精确校准地抓取  1)  [5DC1EF5D]  (AR v2)
     复制成功


音轨  3


     文件名 K:\音乐\动感新势力\VOL.106\学习资料\03 音轨03 - 未知艺术家.wav


     峰值电平 91.3 %
     抓取速度 3.8 X
     音轨质量 100.0 %
     复制 CRC 535B3CA8
     精确校准地抓取  1)  [BBD88869]  (AR v2)
     复制成功


音轨  4


     文件名 K:\音乐\动感新势力\VOL.106\学习资料\04 音轨04 - 未知艺术家.wav


     峰值电平 91.3 %
     抓取速度 3.9 X
     音轨质量 100.0 %
     复制 CRC 1A757454
     精确校准地抓取  1)  [C4CC2B62]  (AR v2)
     复制成功


音轨  5


     文件名 K:\音乐\动感新势力\VOL.106\学习资料\05 音轨05 - 未知艺术家.wav


     峰值电平 90.7 %
     抓取速度 3.8 X
     音轨质量 100.0 %
     复制 CRC 5B98D119
     精确校准地抓取  1)  [BD59992A]  (AR v2)
     复制成功


音轨  6


     文件名 K:\音乐\动感新势力\VOL.106\学习资料\06 音轨06 - 未知艺术家.wav


     峰值电平 91.9 %
     抓取速度 3.9 X
     音轨质量 100.0 %
     复制 CRC BBB76F37
     精确校准地抓取  1)  [2DAFA440]  (AR v2)
     复制成功


音轨  7


     文件名 K:\音乐\动感新势力\VOL.106\学习资料\07 音轨07 - 未知艺术家.wav


     峰值电平 90.6 %
     抓取速度 4.0 X
     音轨质量 100.0 %
     复制 CRC 103874C0
     精确校准地抓取  1)  [8354603F]  (AR v2)
     复制成功


音轨  8


     文件名 K:\音乐\动感新势力\VOL.106\学习资料\08 音轨08 - 未知艺术家.wav


     峰值电平 91.7 %
     抓取速度 3.8 X
     音轨质量 99.9 %
     复制 CRC 933508FF
     精确校准地抓取  1)  [FC03C963]  (AR v2)
     复制成功


音轨  9


     文件名 K:\音乐\动感新势力\VOL.106\学习资料\09 音轨09 - 未知艺术家.wav


     峰值电平 94.0 %
     抓取速度 3.8 X
     音轨质量 100.0 %
     复制 CRC C30D6D65
     精确校准地抓取  1)  [F1CA2C3A]  (AR v2)
     复制成功


音轨 10


     文件名 K:\音乐\动感新势力\VOL.106\学习资料\10 音轨10 - 未知艺术家.wav


     峰值电平 91.6 %
     抓取速度 3.8 X
     音轨质量 100.0 %
     复制 CRC D1839339
     精确校准地抓取  1)  [B404CDC2]  (AR v2)
     复制成功


音轨 11


     文件名 K:\音乐\动感新势力\VOL.106\学习资料\11 音轨11 - 未知艺术家.wav


     峰值电平 91.5 %
     抓取速度 3.8 X
     音轨质量 100.0 %
     复制 CRC 953429F9
     精确校准地抓取  1)  [6B8EADBD]  (AR v2)
     复制成功


音轨 12


     文件名 K:\音乐\动感新势力\VOL.106\学习资料\12 音轨12 - 未知艺术家.wav


     峰值电平 91.4 %
     抓取速度 3.9 X
     音轨质量 100.0 %
     复制 CRC 50420D33
     精确校准地抓取  1)  [67F34083]  (AR v2)
     复制成功


音轨 13


     文件名 K:\音乐\动感新势力\VOL.106\学习资料\13 音轨13 - 未知艺术家.wav


     峰值电平 90.6 %
     抓取速度 3.9 X
     音轨质量 100.0 %
     复制 CRC 721F7607
     精确校准地抓取  1)  [515F701F]  (AR v2)
     复制成功


音轨 14


     文件名 K:\音乐\动感新势力\VOL.106\学习资料\14 音轨14 - 未知艺术家.wav


     峰值电平 92.0 %
     抓取速度 3.9 X
     音轨质量 100.0 %
     复制 CRC AB5B13BA
     精确校准地抓取  1)  [A9192009]  (AR v2)
     复制成功




所有音轨精确校准抓取


没有错误发生


状态报告结尾


---- CUETools DB Plugin V2.1.6


[CTDB TOCID: cj5N0DUykdy9uArlGj2nnLf3bk4-] found
Submit result: cj5N0DUykdy9uArlGj2nnLf3bk4- has been confirmed
Track | CTDB Status
  1   | (8/8) Accurately ripped
  2   | (8/8) Accurately ripped
  3   | (8/8) Accurately ripped
  4   | (8/8) Accurately ripped
  5   | (8/8) Accurately ripped
  6   | (8/8) Accurately ripped
  7   | (8/8) Accurately ripped
  8   | (8/8) Accurately ripped
  9   | (8/8) Accurately ripped
10   | (8/8) Accurately ripped
11   | (8/8) Accurately ripped
12   | (8/8) Accurately ripped
13   | (8/8) Accurately ripped
14   | (8/8) Accurately ripped




评分

参与人数 1CD +320 收起 理由
最终之战 + 320 感谢分享资源,CD包因你而精彩.

查看全部评分




上一篇:Larval Stage Planning《君+謎+私でJUMP!!》FLAC/整轨/BK/百度
下一篇:索尼小金标 Hi-Res:風の谷のナウシカ 百度网盘

0

主题

19

帖子

77

积分

新人会员,请认真回复,若恶意回复,直接封号

Rank: 1

积分
77
发表于 2017-6-24 09:56:59 | 显示全部楼层
下来欣赏一下,楼主辛苦啦

0

主题

81

帖子

193

积分

乐坛新星

Rank: 2

积分
193
发表于 2017-6-24 12:27:22 | 显示全部楼层
感谢楼主长期以来坚持不懈的发帖子,我也得以接触到这些精彩的内容,表示很喜欢这些,期待归来

评分

参与人数 1CD +20 收起 理由
最终之战 + 20 认真回帖,给予加分奖励

查看全部评分

0

主题

13

帖子

70

积分

新人会员,请认真回复,若恶意回复,直接封号

Rank: 1

积分
70
发表于 2017-6-28 18:14:25 | 显示全部楼层
看到动心就直接进来了,感谢楼主分享。
您需要登录后才可以回帖 登录 | 注册

本版积分规则

快速回复 返回顶部 返回列表