最近看过此主题的会员

查看: 241|回复: 1

原抓《动感新时代》VOL.104 CD WAV/分轨/度盘 附DVD

[复制链接]
 成长值: 3135

156

主题

734

帖子

3万

积分

VIP3

Rank: 6Rank: 6

积分
36452
发表于 2017-6-18 12:38:50 | 显示全部楼层 |阅读模式

注册会员,获得无损资源下载地址,享受高品质音乐。

您需要 登录 才可以下载或查看,没有帐号?注册

x
IMG_20170618_122310_1.jpg
第104期 祝秋
01.TV动画「萝球社!」OP「SHOOT!」
02.TV动画「白兔糖」OP「SWEET DROPS」
03.TV动画「青之驱魔师」OP2「IN MY WORLD」
04.TV动画「青之驱魔师」ED2「Wired Life」
05.TV动画「THE iDOLM@STER」OP「READY!!」
06.TV动画「夏目友人账 叁」ED「你的片片回忆[君ノカケラ feat 宮本笑里]」
07.TV动画「日常」OP2「HYADAIN的极品友情[ヒャダインのじょーじょーゆーじょー]」
08.OVA「薄樱鬼 雪华录」ED1「梦幻 -a ture love tale-[夢幻 -a ture love tale-]」
09.TV动画「迷茫管家与胆怯的我」OP「Be Starters!」
10.TV动画「丹特丽安的书架」OP「Cras numquam scire」
11.TV动画「恶魔奶爸」ED3「七色☆泪水[なないろ☆ナミダ]」
12.TV动画「花开之色」ED2「花开之色[はなさくいろは]」
13.剧场版「旋风管家! HEAVEN IS A PLACE ON EARTH」TM「Heaven is a Place on Earth」
14.虚拟偶像企划“LoveLive!”3rd单曲「夏色笑容1,2,Jump![夏色えがおで1,2,Jump!]」



DVD MTV:
CORE PRIDE------TV动画 青之驱魔师 片头曲
夏色笑容 1,2 Jump!------“LoveLive!”3rd 单曲
明天我要去见你------世界第一初恋 片尾曲
SWEET DROPS------白兔糖 片头曲


CD链接:
游客,如果您要查看本帖隐藏内容请回复

密码:
游客,如果您要查看本帖隐藏内容请回复

DVD链接:
游客,如果您要查看本帖隐藏内容请回复

密码:
游客,如果您要查看本帖隐藏内容请回复

解压密码均为:www.cdbao.net


Exact Audio Copy V1.1 from 23. June 2015


EAC 抓取日志文件从17. 六月 2017, 12:29


未知艺术家 / 未知标题


使用驱动器  :SONY    DVD RW DRU-V200A   Adapter: 1  ID: 1


读取模式      : 可靠Secure
使用精确流     : 是
清空音频缓存    : 否
使用 C2 指示器 : 是


读取偏移校正:               : 48
读取 Lead-In 和 Lead-Out : 否
用静音填充抓取中丢失偏移的采样       : 是
去除首尾静音块               : 否
在CRC 计算中使用了空样本       : 是
已用接口                  : Win NT 及 2000 本地 Win32 接口
间隙处理                  : 没检测到,因此追加到上一曲目


所用输出模式: : 内部 WAV 函数
样本格式    : 44.100 Hz; 16 Bit; 立体声




已抓取 CD 的 TOC


     音轨 |    起始    |    长度    |  起始扇区  |  结束扇区  
    --------------------------------------------
      1 |  0:00.00 |  4:49.25 |      0 |  21699
      2 |  4:49.25 |  3:22.27 |  21700 |  36876
      3 |  8:11.52 |  3:29.58 |  36877 |  52609
      4 | 11:41.35 |  4:44.40 |  52610 |  73949
      5 | 16:26.00 |  4:26.32 |  73950 |  93931
      6 | 20:52.32 |  5:49.45 |  93932 | 120151
      7 | 26:42.02 |  4:12.31 | 120152 | 139082
      8 | 30:54.33 |  4:35.00 | 139083 | 159707
      9 | 35:29.33 |  3:58.31 | 159708 | 177588
     10 | 39:27.64 |  4:16.00 | 177589 | 196788
     11 | 43:43.64 |  4:58.21 | 196789 | 219159
     12 | 48:42.10 |  4:26.38 | 219160 | 239147
     13 | 53:08.48 |  5:20.61 | 239148 | 263208
     14 | 58:29.34 |  4:29.60 | 263209 | 283443




音轨  1


     文件名 K:\音乐\动感新势力\VOL.104\学习资料\01 音轨01 - 未知艺术家.wav


     峰值电平 99.9 %
     抓取速度 3.7 X
     音轨质量 99.9 %
     复制 CRC 636710C3
     精确校准地抓取  1)  [28C50745]  (AR v2)
     复制成功


音轨  2


     文件名 K:\音乐\动感新势力\VOL.104\学习资料\02 音轨02 - 未知艺术家.wav


     峰值电平 100.0 %
     抓取速度 3.7 X
     音轨质量 99.8 %
     复制 CRC 8C2BF317
     精确校准地抓取  1)  [E5A9093B]  (AR v2)
     复制成功


音轨  3


     文件名 K:\音乐\动感新势力\VOL.104\学习资料\03 音轨03 - 未知艺术家.wav


     峰值电平 98.8 %
     抓取速度 3.9 X
     音轨质量 100.0 %
     复制 CRC DD842CAB
     精确校准地抓取  1)  [D993AC39]  (AR v2)
     复制成功


音轨  4


     文件名 K:\音乐\动感新势力\VOL.104\学习资料\04 音轨04 - 未知艺术家.wav


     峰值电平 100.0 %
     抓取速度 3.8 X
     音轨质量 100.0 %
     复制 CRC E2AE3F12
     精确校准地抓取  1)  [6CA9F00B]  (AR v2)
     复制成功


音轨  5


     文件名 K:\音乐\动感新势力\VOL.104\学习资料\05 音轨05 - 未知艺术家.wav


     峰值电平 97.7 %
     抓取速度 3.8 X
     音轨质量 99.9 %
     复制 CRC 7F7BBB8C
     精确校准地抓取  1)  [66B4B2CC]  (AR v2)
     复制成功


音轨  6


     文件名 K:\音乐\动感新势力\VOL.104\学习资料\06 音轨06 - 未知艺术家.wav


     峰值电平 100.0 %
     抓取速度 3.8 X
     音轨质量 99.9 %
     复制 CRC E8208C65
     精确校准地抓取  1)  [57491BD4]  (AR v2)
     复制成功


音轨  7


     文件名 K:\音乐\动感新势力\VOL.104\学习资料\07 音轨07 - 未知艺术家.wav


     峰值电平 100.0 %
     抓取速度 4.0 X
     音轨质量 100.0 %
     复制 CRC 1B045E72
     精确校准地抓取  1)  [9B0917E0]  (AR v2)
     复制成功


音轨  8


     文件名 K:\音乐\动感新势力\VOL.104\学习资料\08 音轨08 - 未知艺术家.wav


     峰值电平 100.0 %
     抓取速度 3.8 X
     音轨质量 99.9 %
     复制 CRC 7C965CC2
     精确校准地抓取  1)  [68B22E4E]  (AR v2)
     复制成功


音轨  9


     文件名 K:\音乐\动感新势力\VOL.104\学习资料\09 音轨09 - 未知艺术家.wav


     峰值电平 95.5 %
     抓取速度 3.9 X
     音轨质量 100.0 %
     复制 CRC 24B2AD46
     精确校准地抓取  1)  [A70F2402]  (AR v2)
     复制成功


音轨 10


     文件名 K:\音乐\动感新势力\VOL.104\学习资料\10 音轨10 - 未知艺术家.wav


     峰值电平 98.5 %
     抓取速度 4.0 X
     音轨质量 100.0 %
     复制 CRC A769C198
     精确校准地抓取  1)  [F0E13B3C]  (AR v2)
     复制成功


音轨 11


     文件名 K:\音乐\动感新势力\VOL.104\学习资料\11 音轨11 - 未知艺术家.wav


     峰值电平 100.0 %
     抓取速度 3.8 X
     音轨质量 99.9 %
     复制 CRC C0C756E8
     精确校准地抓取  1)  [75B51B9F]  (AR v2)
     复制成功


音轨 12


     文件名 K:\音乐\动感新势力\VOL.104\学习资料\12 音轨12 - 未知艺术家.wav


     峰值电平 99.9 %
     抓取速度 3.9 X
     音轨质量 100.0 %
     复制 CRC 6F35972A
     精确校准地抓取  1)  [292F83F3]  (AR v2)
     复制成功


音轨 13


     文件名 K:\音乐\动感新势力\VOL.104\学习资料\13 音轨13 - 未知艺术家.wav


     峰值电平 100.0 %
     抓取速度 3.8 X
     音轨质量 100.0 %
     复制 CRC 5F8B1FFF
     精确校准地抓取  1)  [FB49417A]  (AR v2)
     复制成功


音轨 14


     文件名 K:\音乐\动感新势力\VOL.104\学习资料\14 音轨14 - 未知艺术家.wav


     峰值电平 100.0 %
     抓取速度 3.8 X
     音轨质量 100.0 %
     复制 CRC DDA4B10E
     精确校准地抓取  1)  [7291DE65]  (AR v2)
     复制成功




所有音轨精确校准抓取


没有错误发生


状态报告结尾


---- CUETools DB Plugin V2.1.6


[CTDB TOCID: aYy5Y2jtX610vuvyPRpF9KXXaCk-] found
Submit result: aYy5Y2jtX610vuvyPRpF9KXXaCk- has been confirmed
Track | CTDB Status
  1   | (4/4) Accurately ripped
  2   | (4/4) Accurately ripped
  3   | (4/4) Accurately ripped
  4   | (4/4) Accurately ripped
  5   | (4/4) Accurately ripped
  6   | (4/4) Accurately ripped
  7   | (4/4) Accurately ripped
  8   | (4/4) Accurately ripped
  9   | (4/4) Accurately ripped
10   | (4/4) Accurately ripped
11   | (4/4) Accurately ripped
12   | (4/4) Accurately ripped
13   | (4/4) Accurately ripped
14   | (4/4) Accurately ripped


评分

参与人数 1CD +320 收起 理由
最终之战 + 320 感谢分享资源,CD包因你而精彩.

查看全部评分




上一篇:原抓《动感新时代》VOL.103 CD WAV/分轨/度盘 附DVD
下一篇:Larval Stage Planning《君+謎+私でJUMP!!》FLAC/整轨/BK/百度

0

主题

24

帖子

81

积分

新人会员,请认真回复,若恶意回复,直接封号

Rank: 1

积分
81
发表于 2017-6-18 23:07:21 | 显示全部楼层
如果 能全一点就好了,我这里有上学时买的动心。。但不全
您需要登录后才可以回帖 登录 | 注册

本版积分规则

快速回复 返回顶部 返回列表