最近看过此主题的会员

查看: 294|回复: 2

原抓《动感新时代》VOL.103 CD WAV/分轨/度盘 附DVD

[复制链接]
 成长值: 3135

156

主题

734

帖子

3万

积分

VIP3

Rank: 6Rank: 6

积分
36452
发表于 2017-6-16 12:59:40 | 显示全部楼层 |阅读模式

注册会员,获得无损资源下载地址,享受高品质音乐。

您需要 登录 才可以下载或查看,没有帐号?注册

x
IMG_20170616_125613_1.jpg
嘎嘎,听说ACG区缺资源,所以我来水贴啦!这期是两张DVD,多出来的一张是“轻音部少女2 演唱会”,真人的演唱会哦!Come with Me!!
第103期 露雨
01.PSP游戏「BLACK★ROCK SHOOTER THE GAME」TM「NO SCARED」
02.TV动画「BLOOD-C」ED「纯洁悖论[純潔パラドックス]」
03.TV动画「七合圣石战记」OP「stone cold」
04.TV动画「七合圣石战记」ED「辉迹 -kiseki[輝跡 -kiseki-]-」
05.TV动画「花开之色」OP2「时光中的面容[面影ワープ]」
06.TV动画「异国迷宫的十字路口」OP「世界与你共舞[世界は踊るよ、君と。]」
07.TV动画「花名未闻」BGM「Dear Love ~all these years」
08.TV动画「天魔黑兔」OP「Once」
09.TV动画「天魔黑兔」IM「求爱真情[求愛リアル]」
10.TV动画「神样DOLLS」OP「不完全燃烧[不完全燃焼]」
11.TV动画「未来都市NO.6」OP「spell」
12.TV动画「情歌王子 真爱1000%」ED「真爱1000%[マジLOVE1000%]」
13.TV动画「滑头鬼之孙~千年魔京~」ED「Orange Smile」
14.TV动画「ONE PIECE」OP14「Fight Together」
15.晚会「Animelo Summer Live 2011 -rainbow-」TM「rainbow」)(最后一条音轨居然挂了,实在抱歉!



DVD MTV:
动感新时代 2011年夏季主题MTV
HYADAIN的单单单☆单相思------TV动画 日常 片头曲
纯洁悖论------TV动画 BLOOD-C 片尾曲
rainbow------Animelo Summer Live 2011


CD链接:
游客,如果您要查看本帖隐藏内容请回复

密码:
游客,如果您要查看本帖隐藏内容请回复

DVD链接:
游客,如果您要查看本帖隐藏内容请回复

密码:
游客,如果您要查看本帖隐藏内容请回复

轻音演唱会链接:
游客,如果您要查看本帖隐藏内容请回复

密码:
游客,如果您要查看本帖隐藏内容请回复

解压密码均为:www.cdbao.net


Exact Audio Copy V1.1 from 23. June 2015


EAC 抓取日志文件从15. 六月 2017, 10:04


动感新时代 / 103期 露雨


使用驱动器  :SONY    DVD RW DRU-V200A   Adapter: 1  ID: 1


读取模式      : 可靠Secure
使用精确流     : 是
清空音频缓存    : 否
使用 C2 指示器 : 是


读取偏移校正:               : 48
读取 Lead-In 和 Lead-Out : 否
用静音填充抓取中丢失偏移的采样       : 是
去除首尾静音块               : 否
在CRC 计算中使用了空样本       : 是
已用接口                  : Win NT 及 2000 本地 Win32 接口
间隙处理                  : 没检测到,因此追加到上一曲目


所用输出模式: : 内部 WAV 函数
样本格式    : 44.100 Hz; 16 Bit; 立体声




已抓取 CD 的 TOC


     音轨 |    起始    |    长度    |  起始扇区  |  结束扇区  
    --------------------------------------------
      1 |  0:00.00 |  3:41.37 |      0 |  16611
      2 |  3:41.37 |  4:06.37 |  16612 |  35098
      3 |  7:47.74 |  6:00.25 |  35099 |  62123
      4 | 13:48.24 |  4:27.37 |  62124 |  82185
      5 | 18:15.61 |  3:36.00 |  82186 |  98385
      6 | 21:51.61 |  3:53.62 |  98386 | 115922
      7 | 25:45.48 |  3:48.00 | 115923 | 133022
      8 | 29:33.48 |  4:41.37 | 133023 | 154134
      9 | 34:15.10 |  4:30.15 | 154135 | 174399
     10 | 38:45.25 |  4:08.00 | 174400 | 192999
     11 | 42:53.25 |  3:34.00 | 193000 | 209049
     12 | 46:27.25 |  3:36.37 | 209050 | 225286
     13 | 50:03.62 |  4:10.19 | 225287 | 244055
     14 | 54:14.06 |  4:20.55 | 244056 | 263610
     15 | 58:34.61 |  7:01.37 | 263611 | 295222




音轨  1


     文件名 K:\音乐\动感新势力\VOL.103\学习资料\01 NO SCARED(【BLACK★ROCK SHOOTER】主题曲) - ONE OK ROCK.wav


     峰值电平 100.0 %
     抓取速度 3.6 X
     音轨质量 99.9 %
     复制 CRC C9D01C28
     精确校准地抓取  2)  [5A13AC19]  (AR v2)
     复制成功


音轨  2


     文件名 K:\音乐\动感新势力\VOL.103\学习资料\02 纯洁悖论(BLOOD-D ED) - 水树奈奈.wav


     峰值电平 95.5 %
     抓取速度 3.8 X
     音轨质量 100.0 %
     复制 CRC 5D2C7AC2
     精确校准地抓取  2)  [F252825D]  (AR v2)
     复制成功


音轨  3


     文件名 K:\音乐\动感新势力\VOL.103\学习资料\03 stone cold(七合圣石战记 OP) - FictionJunction.wav


     峰值电平 99.9 %
     抓取速度 3.8 X
     音轨质量 100.0 %
     复制 CRC C3B46789
     精确校准地抓取  2)  [4E89FE04]  (AR v2)
     复制成功


音轨  4


     文件名 K:\音乐\动感新势力\VOL.103\学习资料\04 辉迹-kiseki-(七合圣石战记 ED) - 南里侑香.wav


     峰值电平 100.0 %
     抓取速度 3.9 X
     音轨质量 100.0 %
     复制 CRC E6F141D2
     精确校准地抓取  2)  [E254B933]  (AR v2)
     复制成功


音轨  5


     文件名 K:\音乐\动感新势力\VOL.103\学习资料\05 时光中的面容(花开之色OP2) - nano.RIPE.wav


     峰值电平 99.8 %
     抓取速度 3.8 X
     音轨质量 100.0 %
     复制 CRC E1744BBF
     精确校准地抓取  2)  [00C4AB2C]  (AR v2)
     复制成功


音轨  6


     文件名 K:\音乐\动感新势力\VOL.103\学习资料\06 世界与你共舞(异国迷宫的十字路口OP) - 羊毛和花.wav


     峰值电平 98.8 %
     抓取速度 3.8 X
     音轨质量 100.0 %
     复制 CRC 6C094DC2
     精确校准地抓取  2)  [5150FE38]  (AR v2)
     复制成功


音轨  7


     文件名 K:\音乐\动感新势力\VOL.103\学习资料\07 Dear Love~all these years(花名未闻BGM) - REMEDIOS.wav


     峰值电平 100.0 %
     抓取速度 3.9 X
     音轨质量 100.0 %
     复制 CRC 18FDA64B
     精确校准地抓取  2)  [582A9114]  (AR v2)
     复制成功


音轨  8


     文件名 K:\音乐\动感新势力\VOL.103\学习资料\08 Once(天魔黑兔OP) - 原里瞳.wav


     峰值电平 95.5 %
     抓取速度 3.1 X
     音轨质量 99.9 %
     复制 CRC 733A3C9D
     精确校准地抓取  2)  [8A1440CB]  (AR v2)
     复制成功


音轨  9


     文件名 K:\音乐\动感新势力\VOL.103\学习资料\09 求爱真情(天魔黑兔IM) - 原里瞳.wav


     峰值电平 95.5 %
     抓取速度 3.7 X
     音轨质量 99.9 %
     复制 CRC 75DF2DA1
     精确校准地抓取  2)  [4F851360]  (AR v2)
     复制成功


音轨 10


     文件名 K:\音乐\动感新势力\VOL.103\学习资料\10 不完全燃烧(神样DOLLS OP) - 石川智晶.wav


     峰值电平 99.9 %
     抓取速度 3.9 X
     音轨质量 100.0 %
     复制 CRC 521A897C
     精确校准地抓取  2)  [16F845C1]  (AR v2)
     复制成功


音轨 11


     文件名 K:\音乐\动感新势力\VOL.103\学习资料\11 spell(未来都市NO.6 OP) - LAMA.wav


     峰值电平 100.0 %
     抓取速度 3.8 X
     音轨质量 100.0 %
     复制 CRC 40C68BE8
     精确校准地抓取  2)  [02E9BA73]  (AR v2)
     复制成功


音轨 12


     文件名 K:\音乐\动感新势力\VOL.103\学习资料\12 真爱1000%(情歌王子 真爱1000% ED) - ST☆RISH.wav


     峰值电平 100.0 %
     抓取速度 3.9 X
     音轨质量 100.0 %
     复制 CRC 7C2269DB
     精确校准地抓取  2)  [BACA303E]  (AR v2)
     复制成功


音轨 13


     文件名 K:\音乐\动感新势力\VOL.103\学习资料\13 Orange Smile(滑头鬼之孙~千年魔京 ED) - 片手☆SIZE.wav


     峰值电平 99.2 %
     抓取速度 4.0 X
     音轨质量 100.0 %
     复制 CRC 0165E4E1
     精确校准地抓取  1)  [AEACC918]  (AR v2)
     复制成功


音轨 14


     文件名 K:\音乐\动感新势力\VOL.103\学习资料\14 Fight Together(One PIECE OP14) - 安室奈美惠.wav


     峰值电平 99.8 %
     抓取速度 3.9 X
     音轨质量 100.0 %
     复制 CRC 2217F0EC
     精确校准地抓取  2)  [59832496]  (AR v2)
     复制成功


音轨 15


     文件名 K:\音乐\动感新势力\VOL.103\学习资料\15 rainbow(ASL2011 TM) - ASL2011众星.wav


     复制被中止




14 音轨精确校准抓取
1 音轨已取消


一些音轨不能准确地校验


出现错误


状态报告结尾




评分

参与人数 1CD +320 收起 理由
最终之战 + 320 感谢分享资源,CD包因你而精彩.

查看全部评分




上一篇:索尼小金标 Hi-Res:Fate/stay night [Unlimited Blade Works] 百度云
下一篇:原抓《动感新时代》VOL.104 CD WAV/分轨/度盘 附DVD

0

主题

32

帖子

95

积分

新人会员,请认真回复,若恶意回复,直接封号

Rank: 1

积分
95
发表于 5 天前 | 显示全部楼层
看演唱会轻音乐谢谢分享

0

主题

77

帖子

163

积分

乐坛新星

Rank: 2

积分
163
发表于 前天 11:56 | 显示全部楼层
如果您要查看本帖隐藏内容请回复
您需要登录后才可以回帖 登录 | 注册

本版积分规则

快速回复 返回顶部 返回列表