查看: 84|回复: 1

原抓《动感新势力》VOL.11 WAV/分轨/度盘 附VCD

[复制链接]

65

主题

318

帖子

6463

积分

人气天王

Rank: 5Rank: 5

积分
6463
发表于 6 天前 | 显示全部楼层 |阅读模式

注册会员,获得无损资源下载地址,享受高品质音乐。

您需要 登录 才可以下载或查看,没有帐号?注册

x
IMG_20161130_205252.jpg
CD歌单:
01. それが、爱でしょう------下川みくに 《全金属狂潮 FUMOFFU》片头曲
02 .君に吹く风------下川みくに 《全金属狂潮 FUMOFFU》片尾曲
03 .白夜 ~True Light~------宫本骏一 《天使怪盗》片头曲
04 .Cocktail------Hysteric Blue 《螺旋 ~推理之绊》片头曲
05 .Regret------岩崎琢 《浪客剑心 星霜篇》BGM
06 .恋スル気持チ------谷戸由李亜 《最终兵器彼女》片头曲
07 .サヨナラ------谷戸由李亜 《最终兵器彼女》片尾曲
08 .Blue Flow------Heart Of Air 《灰羽联盟》片尾曲
09. 爱が教えてくれた------桑岛法子 《Blue Gender》片尾曲
10 .Opening Theme(KYOSUKE No.1 )------ 梶浦由记 《新橙路 那个夏天的开始》BGM
11 .风になる つじあやの------《猫的报恩》主题歌
12 .Radical Dreamers------みとせのりこ 《Chrono Cross》主题歌
13 .花の子ルンルン------堀江美都子 《花仙子》片头曲
14 .女の子って------猪股裕子&小林亜星 《花仙子》片尾曲
15 .With Love------川井宪次 《机动警察剧场版 东京战争》BGM
16 .Time After Time ~花舞う街で~------仓木麻衣 《名侦探柯南剧场版 迷宫的十字路口》主题歌

VCD MTV:
MAGIC------机动战士高达0083 片尾主题曲
Towards a Far Away Sky------Sky Gunner 片头主题歌
碧蓝瞳孔中的彩虹------相聚一刻 插曲
白金------百变小樱 片头主题歌
CD链接:
密码:
游客,如果您要查看本帖隐藏内容请回复

VCD链接:
游客,如果您要查看本帖隐藏内容请回复

密码:
游客,如果您要查看本帖隐藏内容请回复

解压密码均为:www.cdbao.net

Exact Audio Copy V1.1 from 23. June 2015
EAC 抓取日志文件从30. 十一月 2016, 11:01
未知艺术家 / 未知标题
使用驱动器  :SONY    CD-RW  CRX230E   Adapter: 1  ID: 1
读取模式      : 可靠Secure
使用精确流     : 是
清空音频缓存    : 是
使用 C2 指示器 : 是
读取偏移校正:               : 6
读取 Lead-In 和 Lead-Out : 否
用静音填充抓取中丢失偏移的采样       : 是
去除首尾静音块               : 否
在CRC 计算中使用了空样本       : 是
已用接口                  : Win NT 及 2000 本地 Win32 接口
间隙处理                  : 没检测到,因此追加到上一曲目
所用输出模式: : 内部 WAV 函数
样本格式    : 44.100 Hz; 16 Bit; 立体声

已抓取 CD 的 TOC
     音轨 |    起始    |    长度    |  起始扇区  |  结束扇区  
    --------------------------------------------
      1 |  0:00.00 |  5:13.53 |      0 |  23527
      2 |  5:13.53 |  4:42.65 |  23528 |  44742
      3 |  9:56.43 |  4:20.69 |  44743 |  64311
      4 | 14:17.37 |  3:30.65 |  64312 |  80126
      5 | 17:48.27 |  2:58.46 |  80127 |  93522
      6 | 20:46.73 |  4:36.62 |  93523 | 114284
      7 | 25:23.60 |  4:01.50 | 114285 | 132409
      8 | 29:25.35 |  5:02.35 | 132410 | 155094
      9 | 34:27.70 |  5:47.37 | 155095 | 181156
     10 | 40:15.32 |  3:48.00 | 181157 | 198256
     11 | 44:03.32 |  4:11.39 | 198257 | 217120
     12 | 48:14.71 |  4:37.20 | 217121 | 237915
     13 | 52:52.16 |  3:02.28 | 237916 | 251593
     14 | 55:54.44 |  2:38.06 | 251594 | 263449
     15 | 58:32.50 |  2:35.45 | 263450 | 275119
     16 | 61:08.20 |  4:12.10 | 275120 | 294029

音轨  1
     文件名 G:\动感新势力\VOL.11\VOL.11 CD\01 音轨01.wav
     峰值电平 99.9 %
     抓取速度 6.3 X
     音轨质量 100.0 %
     复制 CRC 71555F88
     音轨在 AccurateRip 数据库中无记录
     复制成功
音轨  2
     文件名 G:\动感新势力\VOL.11\VOL.11 CD\02 音轨02.wav
     峰值电平 98.8 %
     抓取速度 3.0 X
     音轨质量 100.0 %
     复制 CRC BB1062B5
     音轨在 AccurateRip 数据库中无记录
     复制成功
音轨  3
     文件名 G:\动感新势力\VOL.11\VOL.11 CD\03 音轨03.wav
     峰值电平 100.0 %
     抓取速度 3.0 X
     音轨质量 100.0 %
     复制 CRC 57D40E4F
     音轨在 AccurateRip 数据库中无记录
     复制成功
音轨  4
     文件名 G:\动感新势力\VOL.11\VOL.11 CD\04 音轨04.wav
     峰值电平 100.0 %
     抓取速度 2.9 X
     音轨质量 100.0 %
     复制 CRC D10188C6
     音轨在 AccurateRip 数据库中无记录
     复制成功
音轨  5
     文件名 G:\动感新势力\VOL.11\VOL.11 CD\05 音轨05.wav
     峰值电平 99.9 %
     抓取速度 2.8 X
     音轨质量 100.0 %
     复制 CRC 5D28091E
     音轨在 AccurateRip 数据库中无记录
     复制成功
音轨  6
     文件名 G:\动感新势力\VOL.11\VOL.11 CD\06 音轨06.wav
     峰值电平 99.8 %
     抓取速度 3.1 X
     音轨质量 100.0 %
     复制 CRC 9F08CDF3
     音轨在 AccurateRip 数据库中无记录
     复制成功
音轨  7
     文件名 G:\动感新势力\VOL.11\VOL.11 CD\07 音轨07.wav
     峰值电平 99.9 %
     抓取速度 3.0 X
     音轨质量 100.0 %
     复制 CRC 5FF1F97C
     音轨在 AccurateRip 数据库中无记录
     复制成功
音轨  8
     文件名 G:\动感新势力\VOL.11\VOL.11 CD\08 音轨08.wav
     峰值电平 99.9 %
     抓取速度 3.1 X
     音轨质量 100.0 %
     复制 CRC 9300DD03
     音轨在 AccurateRip 数据库中无记录
     复制成功
音轨  9
     文件名 G:\动感新势力\VOL.11\VOL.11 CD\09 音轨09.wav
     峰值电平 89.0 %
     抓取速度 3.2 X
     音轨质量 100.0 %
     复制 CRC A671358C
     音轨在 AccurateRip 数据库中无记录
     复制成功
音轨 10
     文件名 G:\动感新势力\VOL.11\VOL.11 CD\10 音轨10.wav
     峰值电平 100.0 %
     抓取速度 3.0 X
     音轨质量 100.0 %
     复制 CRC 16FD07CB
     音轨在 AccurateRip 数据库中无记录
     复制成功
音轨 11
     文件名 G:\动感新势力\VOL.11\VOL.11 CD\11 音轨11.wav
     峰值电平 89.0 %
     抓取速度 3.0 X
     音轨质量 100.0 %
     复制 CRC 6F469FDB
     音轨在 AccurateRip 数据库中无记录
     复制成功
音轨 12
     文件名 G:\动感新势力\VOL.11\VOL.11 CD\12 音轨12.wav
     峰值电平 99.0 %
     抓取速度 3.0 X
     音轨质量 100.0 %
     复制 CRC BDDDE9D8
     音轨在 AccurateRip 数据库中无记录
     复制成功
音轨 13
     文件名 G:\动感新势力\VOL.11\VOL.11 CD\13 音轨13.wav
     峰值电平 89.0 %
     抓取速度 2.8 X
     音轨质量 100.0 %
     复制 CRC EC0363A2
     音轨在 AccurateRip 数据库中无记录
     复制成功
音轨 14
     文件名 G:\动感新势力\VOL.11\VOL.11 CD\14 音轨14.wav
     峰值电平 89.0 %
     抓取速度 1.5 X
     音轨质量 99.8 %
     复制 CRC E13773E3
     音轨在 AccurateRip 数据库中无记录
     复制成功
音轨 15
     文件名 G:\动感新势力\VOL.11\VOL.11 CD\15 音轨15.wav
     峰值电平 99.9 %
     抓取速度 2.7 X
     音轨质量 100.0 %
     复制 CRC 051351E1
     音轨在 AccurateRip 数据库中无记录
     复制成功
音轨 16
     文件名 G:\动感新势力\VOL.11\VOL.11 CD\16 音轨16.wav
     峰值电平 86.8 %
     抓取速度 3.0 X
     音轨质量 100.0 %
     复制 CRC F80E9A41
     音轨在 AccurateRip 数据库中无记录
     复制成功

没有任何音轨在 AccurateRip 数据库中有记录
没有错误发生
状态报告结尾
---- CUETools DB Plugin V2.1.6
[CTDB TOCID: 1oF5JThEDSRPrITBt46yylaWyi0-] found
Submit result: 1oF5JThEDSRPrITBt46yylaWyi0- has been confirmed
Track | CTDB Status
  1   | (4/5) Accurately ripped
  2   | (4/5) Accurately ripped
  3   | (4/5) Accurately ripped
  4   | (4/5) Accurately ripped
  5   | (4/5) Accurately ripped
  6   | (4/5) Accurately ripped
  7   | (4/5) Accurately ripped
  8   | (4/5) Accurately ripped
  9   | (4/5) Accurately ripped
10   | (4/5) Accurately ripped
11   | (4/5) Accurately ripped
12   | (4/5) Accurately ripped
13   | (4/5) Accurately ripped
14   | (4/5) Accurately ripped
15   | (4/5) Accurately ripped
16   | (4/5) Accurately ripped




评分

参与人数 1CD +320 收起 理由
最终之战 + 320 感谢分享资源,CD包因你而精彩.

查看全部评分




上一篇:原抓 《动感新势力》VOL.9 WAV/分轨/度盘 附VCD
下一篇:原抓《动感新势力》VOL.12 CD WAV/分轨/度盘 附VCD

0

主题

128

帖子

196

积分

乐坛新星

Rank: 2

积分
196

社区QQ达人

发表于 5 天前 | 显示全部楼层
最近想听动漫歌曲正需要谢谢了
您需要登录后才可以回帖 登录 | 注册

本版积分规则

快速回复 返回顶部 返回列表