查看: 165|回复: 4

原抓《游戏·人》VOL.1 CD WAV/分轨/度盘

[复制链接]

65

主题

318

帖子

6463

积分

人气天王

Rank: 5Rank: 5

积分
6463
发表于 7 天前 | 显示全部楼层 |阅读模式

注册会员,获得无损资源下载地址,享受高品质音乐。

您需要 登录 才可以下载或查看,没有帐号?注册

x
IMG_20161129_210657_1.jpg

歌单:
01.《final fantasy 7》经典插曲--tina
02.《final fantasy 10》主题曲--素敌だね
03.《final fantasy 10》钢琴曲--ぃつか终ねゐ梦
04.
《梦幻模拟战2》插曲混音1
05.
《梦幻模拟战2》插曲混音2
06.
《北欧女神》插曲混音--requiem of a predicament
07.《恶魔城10》图书馆场景的插曲
08.《幻想水浒传3》主题曲--exceeding love
09.《波波罗古罗伊斯》主题曲--瞳の扉
10.《.hack》主题曲--gentie twilight
11.《光明与黑暗》插曲--warrior of the reviving light
12.
《g高达》主题曲--flying in the sky
13.《鬼武者2》特典--russian roulette
14.特别赠送--新居昭乃《冻る砂》


链接:
游客,如果您要查看本帖隐藏内容请回复

密码:
游客,如果您要查看本帖隐藏内容请回复

解压密码:www.cdbao.net

Exact Audio Copy V1.1 from 23. June 2015
EAC 抓取日志文件从29. 十一月 2016, 9:58
未知艺术家 / 未知标题
使用驱动器  :SONY    CD-RW  CRX230E   Adapter: 1  ID: 1
读取模式      : 可靠Secure
使用精确流     : 是
清空音频缓存    : 是
使用 C2 指示器 : 是

读取偏移校正:               : 6
读取 Lead-In 和 Lead-Out : 否
用静音填充抓取中丢失偏移的采样       : 是
去除首尾静音块               : 否
在CRC 计算中使用了空样本       : 是
已用接口                  : Win NT 及 2000 本地 Win32 接口
间隙处理                  : 没检测到,因此追加到上一曲目

所用输出模式: : 内部 WAV 函数
样本格式    : 44.100 Hz; 16 Bit; 立体声


已抓取 CD 的 TOC
     音轨 |    起始    |    长度    |  起始扇区  |  结束扇区  
    --------------------------------------------
      1 |  0:00.00 |  3:52.06 |      0 |  17405
      2 |  3:52.06 |  5:36.51 |  17406 |  42656
      3 |  9:28.57 |  4:26.43 |  42657 |  62649
      4 | 13:55.25 |  2:26.61 |  62650 |  73660
      5 | 16:22.11 |  2:33.40 |  73661 |  85175
      6 | 18:55.51 |  5:26.33 |  85176 | 109658
      7 | 24:22.09 |  1:42.70 | 109659 | 117378
      8 | 26:05.04 |  3:13.51 | 117379 | 131904
      9 | 29:18.55 |  4:24.00 | 131905 | 151704
     10 | 33:42.55 |  5:13.55 | 151705 | 175234
     11 | 38:56.35 |  3:34.53 | 175235 | 191337
     12 | 42:31.13 |  3:46.25 | 191338 | 208312
     13 | 46:17.38 |  4:00.72 | 208313 | 226384
     14 | 50:18.35 |  5:25.12 | 226385 | 250771

音轨  1
     文件名 G:\游戏人\游戏人第一期\01 音轨01.wav
     峰值电平 98.1 %
     抓取速度 5.6 X
     音轨质量 100.0 %
     复制 CRC C6070BBD
     音轨在 AccurateRip 数据库中无记录
     复制成功
音轨  2
     文件名 G:\游戏人\游戏人第一期\02 音轨02.wav
     峰值电平 100.0 %
     抓取速度 3.1 X
     音轨质量 100.0 %
     复制 CRC F08037A5
     音轨在 AccurateRip 数据库中无记录
     复制成功
音轨  3
     文件名 G:\游戏人\游戏人第一期\03 音轨03.wav
     峰值电平 97.2 %
     抓取速度 3.0 X
     音轨质量 100.0 %
     复制 CRC 76BC73A5
     音轨在 AccurateRip 数据库中无记录
     复制成功
音轨  4
     文件名 G:\游戏人\游戏人第一期\04 音轨04.wav
     峰值电平 98.9 %
     抓取速度 2.7 X
     音轨质量 100.0 %
     复制 CRC 472D7DD8
     音轨在 AccurateRip 数据库中无记录
     复制成功
音轨  5
     文件名 G:\游戏人\游戏人第一期\05 音轨05.wav
     峰值电平 82.6 %
     抓取速度 2.7 X
     音轨质量 100.0 %
     复制 CRC 609DF250
     音轨在 AccurateRip 数据库中无记录
     复制成功
音轨  6
     文件名 G:\游戏人\游戏人第一期\06 音轨06.wav
     峰值电平 100.0 %
     抓取速度 3.1 X
     音轨质量 100.0 %
     复制 CRC CD932B57
     音轨在 AccurateRip 数据库中无记录
     复制成功
音轨  7
     文件名 G:\游戏人\游戏人第一期\07 音轨07.wav
     峰值电平 100.0 %
     抓取速度 1.1 X
     音轨质量 99.7 %
     复制 CRC 1EB7C45A
     音轨在 AccurateRip 数据库中无记录
     复制成功
音轨  8
     文件名 G:\游戏人\游戏人第一期\08 音轨08.wav
     峰值电平 100.0 %
     抓取速度 2.8 X
     音轨质量 100.0 %
     复制 CRC 3AEDFE55
     音轨在 AccurateRip 数据库中无记录
     复制成功
音轨  9
     文件名 G:\游戏人\游戏人第一期\09 音轨09.wav
     峰值电平 100.0 %
     抓取速度 3.0 X
     音轨质量 100.0 %
     复制 CRC 488D8DE2
     音轨在 AccurateRip 数据库中无记录
     复制成功
音轨 10
     文件名 G:\游戏人\游戏人第一期\10 音轨10.wav
     峰值电平 100.0 %
     抓取速度 3.1 X
     音轨质量 100.0 %
     复制 CRC 88F4AD4A
     音轨在 AccurateRip 数据库中无记录
     复制成功
音轨 11
     文件名 G:\游戏人\游戏人第一期\11 音轨11.wav
     峰值电平 100.0 %
     抓取速度 2.9 X
     音轨质量 100.0 %
     复制 CRC 46E76CEE
     音轨在 AccurateRip 数据库中无记录
     复制成功
音轨 12
     文件名 G:\游戏人\游戏人第一期\12 音轨12.wav
     峰值电平 100.0 %
     抓取速度 3.0 X
     音轨质量 100.0 %
     复制 CRC 19A2B261
     音轨在 AccurateRip 数据库中无记录
     复制成功
音轨 13
     文件名 G:\游戏人\游戏人第一期\13 音轨13.wav
     峰值电平 72.4 %
     抓取速度 3.0 X
     音轨质量 100.0 %
     复制 CRC 042917D7
     音轨在 AccurateRip 数据库中无记录
     复制成功
音轨 14
     文件名 G:\游戏人\游戏人第一期\14 音轨14.wav
     峰值电平 100.0 %
     抓取速度 3.1 X
     音轨质量 100.0 %
     复制 CRC FB4D1DE3
     音轨在 AccurateRip 数据库中无记录
     复制成功

没有任何音轨在 AccurateRip 数据库中有记录
没有错误发生
状态报告结尾
---- CUETools DB Plugin V2.1.6
[CTDB TOCID: I2_IMd2Vt0rIQv6FGI2vNnonsrM-] found
Submit result: I2_IMd2Vt0rIQv6FGI2vNnonsrM- has been confirmed
Track | CTDB Status
  1   | (2/2) Accurately ripped
  2   | (2/2) Accurately ripped
  3   | (2/2) Accurately ripped
  4   | (2/2) Accurately ripped
  5   | (2/2) Accurately ripped
  6   | (2/2) Accurately ripped
  7   | (2/2) Accurately ripped
  8   | (2/2) Accurately ripped
  9   | (2/2) Accurately ripped
10   | (2/2) Accurately ripped
11   | (2/2) Accurately ripped
12   | (2/2) Accurately ripped
13   | (2/2) Accurately ripped
14   | (2/2) Accurately ripped

评分

参与人数 1CD +240 收起 理由
最终之战 + 240 感谢分享资源,CD包因你而精彩.

查看全部评分




上一篇:原抓 《最终幻想 水晶旋律》 WAV/分轨/度盘
下一篇:原抓《游戏·人》VOL.2 CD WAV/分轨/度盘

0

主题

904

帖子

-126

积分

恶意回复被扣没分了,积分增加方法见置顶帖

积分
-126
发表于 7 天前 | 显示全部楼层

多谢分享,楼主辛苦了,下来试听。

12

主题

1610

帖子

4815

积分

人气天王

Rank: 5Rank: 5

积分
4815

社区QQ达人

发表于 7 天前 | 显示全部楼层
这个等不得了,很久没有怀旧以前的游戏了

0

主题

1432

帖子

600

积分

职业歌手

Rank: 3Rank: 3

积分
600
发表于 6 天前 | 显示全部楼层
游戏歌曲,没听过,谢谢分享好东西!!!!!!!!!!!!!

0

主题

128

帖子

196

积分

乐坛新星

Rank: 2

积分
196

社区QQ达人

发表于 5 天前 | 显示全部楼层
最近想听动漫歌曲正需要谢谢了
您需要登录后才可以回帖 登录 | 注册

本版积分规则

快速回复 返回顶部 返回列表