查看: 99|回复: 6

R&B 新灵魂:Maxwell《blackSUMMERS'night》2016/FLAC/BD

[复制链接]
 成长值: 19575

6461

主题

1万

帖子

8万

积分

音乐掌门人

Rank: 20Rank: 20Rank: 20Rank: 20Rank: 20

积分
83676

名人勋章社区QQ达人分享勋章精华帖达人灌水勋章

发表于 7 天前 | 显示全部楼层 |阅读模式

注册会员,获得无损资源下载地址,享受高品质音乐。

您需要 登录 才可以下载或查看,没有帐号?注册

x
front.jpg

Maxwell / blackSUMMERS'night

全名Maxwell Rivera是位道地的纽约客,同时流有波多黎各和印地安血统,虽然从小在教堂的唱诗班中演出,却没有让Maxwell正视看待音乐这条路,一直折腾到 17岁,利用朋友送的廉价卡西欧键盘开始尝试创作,受到80年代节奏蓝调的影响,随即一脚踏进音乐之途。1991年在纽约各大Club演出,经过三年的琢磨,于1994年顺利签入Columbia国际唱片旗下。散发浓郁Neo-Soul媚惑情调,灵韵穿绕如丝绸般超乎想像的舒适感受,赢得四座黑人音乐最高荣誉Soul Train奖项加冕、连续四届葛莱美的提名肯定。  
Maxwell是来自纽约的节奏蓝调性灵歌手,以一头蓬松的头发及其浪漫感性、丰沛情感建构的音乐观在乐坛卓然自成一格。96年步入乐坛发行首张专辑「Maxwell‘s Urban Hang Suite」,旋即专辑与单曲「Ascension(Don’t Ever Wonder)」双双打入全美节奏蓝调榜Top 10,并且获得“滚石”杂志乐评票选为「最佳节奏蓝调艺人」,”时代杂志”亦将这张专辑选做1996年十大最杰出专辑之一,进而荣获葛莱美奖「最佳节奏蓝调专辑」奖项的提名。而在97年“Soul Train(灵魂列车)”音乐奖中,Maxwell更是抱走叁项大奖:「最佳节奏蓝调/灵魂乐男性艺人单曲」、「最佳节奏蓝调/灵魂乐男性艺人专辑」,以及「最佳节奏蓝调/灵魂或饶舌乐新进艺人」等。由于首张专辑的杰出表现,使得Maxwell被视做九零年代末期Urban音乐最具代表性的人物。

Жанр: R&B | Soul | Neo-Soul
Носитель: CD
Страна-производитель диска (релиза): US
Год издания: 2016
Издатель (лейбл): Columbia
Номер по каталогу: 88697 75268 2
Страна исполнителя (группы): US
Аудиокодек: FLAC (*.flac)
Тип рипа: tracks+.cue
Битрейт аудио: lossless
Продолжительность: 00:46:55

back.jpg
01. All The Ways Love Can Feel
02. The Fall
03. III
04. Lake By The Ocean
05. Fingers Crossed
06. Hostage
07. 1990x
08. Gods
09. Lost
10. Of All Kind
11. Listen Hear
12. Night


X Lossless Decoder version 20151214 (149.1)
XLD extraction logfile from 2016-07-02 15:11:41 -0400
Maxwell / blackSUMMERS'night
Used drive : MATSHITA DVD-R   UJ-898 (revision HA07)
Media type : Pressed CD
Ripper mode             : XLD Secure Ripper
Disable audio cache     : OK for the drive with a cache less than 1375KiB
Make use of C2 pointers : NO
Read offset correction  : 102
Max retry count         : 20
Gap status              : Analyzed, Appended (except HTOA)
TOC of the extracted CD
     Track |   Start  |  Length  | Start sector | End sector
    ---------------------------------------------------------
        1  | 00:00:00 | 05:21:34 |         0    |    24108
        2  | 05:21:34 | 04:11:05 |     24109    |    42938
        3  | 09:32:39 | 04:47:34 |     42939    |    64497
        4  | 14:19:73 | 03:58:74 |     64498    |    82421
        5  | 18:18:72 | 04:38:37 |     82422    |   103308
        6  | 22:57:34 | 03:55:30 |    103309    |   120963
        7  | 26:52:64 | 04:44:52 |    120964    |   142315
        8  | 31:37:41 | 03:35:68 |    142316    |   158508
        9  | 35:13:34 | 03:57:22 |    158509    |   176305
       10  | 39:10:56 | 03:42:44 |    176306    |   192999
       11  | 42:53:25 | 03:38:05 |    193000    |   209354
       12  | 46:31:30 | 00:23:14 |    209355    |   211093
AccurateRip Summary
    Disc not found in AccurateRip DB.
All Tracks
    Album gain               : -8.11 dB
    Peak                     : 0.998840
    Statistics
        Read error                           : 0
        Jitter error (maybe fixed)           : 0
        Retry sector count                   : 0
        Damaged sector count                 : 0
Track 01
    Filename : /Users/Sareesha/Documents/Maxwell - blackSUMMERS'night (2016) [FLAC]/01 All The Ways Love Can Feel
Maxwell - 2016 - blackSUMMERS'night [FLAC]/01 All The Ways Love Can Feel.flac
    Pre-gap length : 00:02:00
    Track gain               : -8.29 dB
    Peak                     : 0.998840
    CRC32 hash (test run)    : 5D2B60E8
    CRC32 hash               : 5D2B60E8
    CRC32 hash (skip zero)   : BFF3A9EC
    AccurateRip v1 signature : EC0621F2
    AccurateRip v2 signature : 51381FC8
        ->Track not present in AccurateRip database.
    Statistics
        Read error                           : 0
        Jitter error (maybe fixed)           : 0
        Retry sector count                   : 0
        Damaged sector count                 : 0
Track 02
    Filename : /Users/Sareesha/Documents/Maxwell - blackSUMMERS'night (2016) [FLAC]/02 The Fall
Maxwell - 2016 - blackSUMMERS'night [FLAC]/02 The Fall.flac
    Track gain               : -6.93 dB
    Peak                     : 0.998840
    CRC32 hash (test run)    : 588AB838
    CRC32 hash               : 588AB838
    CRC32 hash (skip zero)   : 13373B94
    AccurateRip v1 signature : 836A7852
    AccurateRip v2 signature : 063EE6B1
        ->Track not present in AccurateRip database.
    Statistics
        Read error                           : 0
        Jitter error (maybe fixed)           : 0
        Retry sector count                   : 0
        Damaged sector count                 : 0
Track 03
    Filename : /Users/Sareesha/Documents/Maxwell - blackSUMMERS'night (2016) [FLAC]/03 III
Maxwell - 2016 - blackSUMMERS'night [FLAC]/03 III.flac
    Track gain               : -7.13 dB
    Peak                     : 0.998840
    CRC32 hash (test run)    : 383348EE
    CRC32 hash               : 383348EE
    CRC32 hash (skip zero)   : B7A08FF8
    AccurateRip v1 signature : 98A59719
    AccurateRip v2 signature : 7B82993E
        ->Track not present in AccurateRip database.
    Statistics
        Read error                           : 0
        Jitter error (maybe fixed)           : 0
        Retry sector count                   : 0
        Damaged sector count                 : 0
Track 04
    Filename : /Users/Sareesha/Documents/Maxwell - blackSUMMERS'night (2016) [FLAC]/04 Lake By The Ocean
Maxwell - 2016 - blackSUMMERS'night [FLAC]/04 Lake By The Ocean.flac
    Track gain               : -10.26 dB
    Peak                     : 0.998840
    CRC32 hash (test run)    : 5C737D09
    CRC32 hash               : 5C737D09
    CRC32 hash (skip zero)   : 213862AD
    AccurateRip v1 signature : 2966D55A
    AccurateRip v2 signature : 2FE03433
        ->Track not present in AccurateRip database.
    Statistics
        Read error                           : 0
        Jitter error (maybe fixed)           : 0
        Retry sector count                   : 0
        Damaged sector count                 : 0
Track 05
    Filename : /Users/Sareesha/Documents/Maxwell - blackSUMMERS'night (2016) [FLAC]/05 Fingers Crossed
Maxwell - 2016 - blackSUMMERS'night [FLAC]/05 Fingers Crossed.flac
    Track gain               : -8.27 dB
    Peak                     : 0.998840
    CRC32 hash (test run)    : AA238AB7
    CRC32 hash               : AA238AB7
    CRC32 hash (skip zero)   : CFDC4A31
    AccurateRip v1 signature : A276E7C7
    AccurateRip v2 signature : E117988A
        ->Track not present in AccurateRip database.
    Statistics
        Read error                           : 0
        Jitter error (maybe fixed)           : 0
        Retry sector count                   : 0
        Damaged sector count                 : 0
Track 06
    Filename : /Users/Sareesha/Documents/Maxwell - blackSUMMERS'night (2016) [FLAC]/06 Hostage
Maxwell - 2016 - blackSUMMERS'night [FLAC]/06 Hostage.flac
    Track gain               : -5.56 dB
    Peak                     : 0.998840
    CRC32 hash (test run)    : 75E870D9
    CRC32 hash               : 75E870D9
    CRC32 hash (skip zero)   : 538A43B2
    AccurateRip v1 signature : 3B69CE24
    AccurateRip v2 signature : E470C9E1
        ->Track not present in AccurateRip database.
    Statistics
        Read error                           : 0
        Jitter error (maybe fixed)           : 0
        Retry sector count                   : 0
        Damaged sector count                 : 0
Track 07
    Filename : /Users/Sareesha/Documents/Maxwell - blackSUMMERS'night (2016) [FLAC]/07 1990x
Maxwell - 2016 - blackSUMMERS'night [FLAC]/07 1990x.flac
    Track gain               : -6.97 dB
    Peak                     : 0.998840
    CRC32 hash (test run)    : 39D7E47E
    CRC32 hash               : 39D7E47E
    CRC32 hash (skip zero)   : C71E8604
    AccurateRip v1 signature : 160136D8
    AccurateRip v2 signature : 00A3A609
        ->Track not present in AccurateRip database.
    Statistics
        Read error                           : 0
        Jitter error (maybe fixed)           : 0
        Retry sector count                   : 0
        Damaged sector count                 : 0
Track 08
    Filename : /Users/Sareesha/Documents/Maxwell - blackSUMMERS'night (2016) [FLAC]/08 Gods
Maxwell - 2016 - blackSUMMERS'night [FLAC]/08 Gods.flac
    Track gain               : -6.22 dB
    Peak                     : 0.998840
    CRC32 hash (test run)    : 7CFBC639
    CRC32 hash               : 7CFBC639
    CRC32 hash (skip zero)   : 94D6C448
    AccurateRip v1 signature : 78604E7F
    AccurateRip v2 signature : 8A276317
        ->Track not present in AccurateRip database.
    Statistics
        Read error                           : 0
        Jitter error (maybe fixed)           : 0
        Retry sector count                   : 0
        Damaged sector count                 : 0
Track 09
    Filename : /Users/Sareesha/Documents/Maxwell - blackSUMMERS'night (2016) [FLAC]/09 Lost
Maxwell - 2016 - blackSUMMERS'night [FLAC]/09 Lost.flac
    Track gain               : -9.19 dB
    Peak                     : 0.998840
    CRC32 hash (test run)    : 3FFF4056
    CRC32 hash               : 3FFF4056
    CRC32 hash (skip zero)   : 9E420947
    AccurateRip v1 signature : 8765433A
    AccurateRip v2 signature : E1C8606A
        ->Track not present in AccurateRip database.
    Statistics
        Read error                           : 0
        Jitter error (maybe fixed)           : 0
        Retry sector count                   : 0
        Damaged sector count                 : 0
Track 10
    Filename : /Users/Sareesha/Documents/Maxwell - blackSUMMERS'night (2016) [FLAC]/10 Of All Kind
Maxwell - 2016 - blackSUMMERS'night [FLAC]/10 Of All Kind.flac
    Track gain               : -8.00 dB
    Peak                     : 0.998840
    CRC32 hash (test run)    : 063AC417
    CRC32 hash               : 063AC417
    CRC32 hash (skip zero)   : 993AF5E3
    AccurateRip v1 signature : 742F85C6
    AccurateRip v2 signature : FEF8EEF1
        ->Track not present in AccurateRip database.
    Statistics
        Read error                           : 0
        Jitter error (maybe fixed)           : 0
        Retry sector count                   : 0
        Damaged sector count                 : 0
Track 11
    Filename : /Users/Sareesha/Documents/Maxwell - blackSUMMERS'night (2016) [FLAC]/11 Listen Hear
Maxwell - 2016 - blackSUMMERS'night [FLAC]/11 Listen Hear.flac
    Track gain               : -6.16 dB
    Peak                     : 0.998840
    CRC32 hash (test run)    : 72415E8E
    CRC32 hash               : 72415E8E
    CRC32 hash (skip zero)   : 2070EFEF
    AccurateRip v1 signature : 66783F5E
    AccurateRip v2 signature : AA2D6C92
        ->Track not present in AccurateRip database.
    Statistics
        Read error                           : 0
        Jitter error (maybe fixed)           : 0
        Retry sector count                   : 0
        Damaged sector count                 : 0
Track 12
    Filename : /Users/Sareesha/Documents/Maxwell - blackSUMMERS'night (2016) [FLAC]/12 Night
Maxwell - 2016 - blackSUMMERS'night [FLAC]/12 Night.flac
    Track gain               : 3.05 dB
    Peak                     : 0.326599
    CRC32 hash (test run)    : BD62D5E1
    CRC32 hash               : BD62D5E1
    CRC32 hash (skip zero)   : 12AEEF23
    AccurateRip v1 signature : E4B46274
    AccurateRip v2 signature : 1946F28A
        ->Track not present in AccurateRip database.
    Statistics
        Read error                           : 0
        Jitter error (maybe fixed)           : 0
        Retry sector count                   : 0
        Damaged sector count                 : 0
No errors occurred
End of status report
-----BEGIN XLD SIGNATURE-----
PB.rDhGXT5Xq11oPZGPLVFXAXQB2HJt732HvnoVuc.ywpy5oaJlSUu.hnmrJZqNVmPa4CYTRGMiNpFhvsGaoAb5o4Y3mSN46Y83c.qa
-----END XLD SIGNATURE-----


================================
百度下载(音乐共享精神)
游客,如果您要查看本帖隐藏内容请回复
来自群组: 欧美流行



上一篇:R&B 流行 放克 灵魂:Jones《New Skin》2016/FLAC/BD
下一篇:R&B 灵魂 电子:Nao《For All We Know》2016/FLAC/BD
关于链接失效的说明(度盘+115盘+快传 好友分享的说明)
http://www.cdbao.net/thread-117499-1-1.html     
紧急通告:115,快传等网盘取消了分享功能礼包码链接全部失效
http://www.cdbao.net/thread-122759-1-1.html
integral

0

主题

330

帖子

551

积分

职业歌手

Rank: 3Rank: 3

积分
551

社区QQ达人

发表于 7 天前 | 显示全部楼层
90年代的R&B的歌手,支持一下,谢谢分享。

0

主题

257

帖子

2898

积分

当红偶像

Rank: 4

积分
2898

社区QQ达人

发表于 7 天前 | 显示全部楼层
喜欢。。支持一下。。感谢分享

0

主题

50

帖子

766

积分

职业歌手

Rank: 3Rank: 3

积分
766
发表于 6 天前 | 显示全部楼层
不错的专辑,感谢LZ无私分享,支持

0

主题

1408

帖子

575

积分

职业歌手

Rank: 3Rank: 3

积分
575
发表于 6 天前 | 显示全部楼层
喜欢这个类型的歌,谢谢分享好东西!!!!!!!!!!!!!!!!!!!!

0

主题

543

帖子

647

积分

职业歌手

Rank: 3Rank: 3

积分
647

社区QQ达人

发表于 3 天前 | 显示全部楼层
骚气的声音直击心灵,必须下来!

0

主题

171

帖子

322

积分

乐坛新星

Rank: 2

积分
322
发表于 前天 08:38 | 显示全部楼层
听听看,谢谢分享。。。。。。
您需要登录后才可以回帖 登录 | 注册

本版积分规则

快速回复 返回顶部 返回列表