查看: 101|回复: 1

原抓 《动感新势力》VOL.9 WAV/分轨/度盘 附VCD

[复制链接]

66

主题

320

帖子

6993

积分

人气天王

Rank: 5Rank: 5

积分
6993
发表于 2016-11-28 18:58:19 | 显示全部楼层 |阅读模式

注册会员,获得无损资源下载地址,享受高品质音乐。

您需要 登录 才可以下载或查看,没有帐号?注册

x
IMG_20161128_181602_1.jpg
CD曲目:
01.Second Fight ------KOTOKO&佐藤裕美 《拜托了,双胞胎》片头曲

02.明日への涙------川田まみ 《拜托了,双胞胎》片尾曲

03.デンワしてダーリン------石井ゆき 《Q版女神》片尾曲

04.Corsican Corridor------梶浦由记 《Noir》BGM

05.永远の花------石田燿子 《青出于蓝》片头曲

06.名も知れぬ花------The Indigo 《青出于蓝》片尾曲

07.All The Way------下川みくに 《奇诺之旅》片头曲

08.Beaytiful World ------前田爱 《奇诺之旅》片头曲

09.运命(さだめ)------佐藤直纪 《X》BGM

10.Secret Sorrow ------小泉恒平 《X》片尾曲

11.You Get To Burning------松泽由美(松泽由実) 《机动战舰抚子》片头曲

12.私らしく ------桑岛法子 《机动战舰抚子》片尾曲

13.十六夜------高桥真梨子 《City Hunter剧场版 爱与宿命的连发枪》主题歌

14.マルユとジーナのテーマ------久石譲 《红猪》BGM


VCD MTV曲目:

secret of my heart------名侦探柯南片尾主题歌

圆圆的月亮------魔力女管家插曲

Wind------Wind-a breath of heart片头主题歌

月之茧------TURN A 高达片尾主题歌


CD链接:
游客,如果您要查看本帖隐藏内容请回复

密码:
游客,如果您要查看本帖隐藏内容请回复

VCD链接:
游客,如果您要查看本帖隐藏内容请回复

密码:
游客,如果您要查看本帖隐藏内容请回复

解压密码:www.cdbao.net


Exact Audio Copy V1.1 from 23. June 2015

EAC 抓取日志文件从28. 十一月 2016, 9:45

未知艺术家 / 未知标题

使用驱动器  :SONY    CD-RW  CRX230E   Adapter: 1  ID: 1

读取模式      : 可靠Secure
使用精确流     : 是
清空音频缓存    : 是
使用 C2 指示器 : 是

读取偏移校正:               : 6
读取 Lead-In 和 Lead-Out : 否
用静音填充抓取中丢失偏移的采样       : 是
去除首尾静音块               : 否
在CRC 计算中使用了空样本       : 是
已用接口                  : Win NT 及 2000 本地 Win32 接口
间隙处理                  : 没检测到,因此追加到上一曲目

所用输出模式: : 内部 WAV 函数
样本格式    : 44.100 Hz; 16 Bit; 立体声


已抓取 CD 的 TOC
     音轨 |    起始    |    长度    |  起始扇区  |  结束扇区  
    --------------------------------------------
      1 |  0:00.00 |  5:44.50 |      0 |  25849
      2 |  5:44.50 |  6:30.54 |  25850 |  55153
      3 | 12:15.29 |  4:31.15 |  55154 |  75493
      4 | 16:46.44 |  3:49.48 |  75494 |  92716
      5 | 20:36.17 |  4:16.73 |  92717 | 111989
      6 | 24:53.15 |  3:59.02 | 111990 | 129916
      7 | 28:52.17 |  4:38.24 | 129917 | 150790
      8 | 33:30.41 |  4:47.31 | 150791 | 172346
      9 | 38:17.72 |  5:57.25 | 172347 | 199146
     10 | 44:15.22 |  5:01.46 | 199147 | 221767
     11 | 49:16.68 |  4:15.35 | 221768 | 240927
     12 | 53:32.28 |  4:57.23 | 240928 | 263225
     13 | 58:29.51 |  4:48.00 | 263226 | 284825
     14 | 63:17.51 |  4:06.25 | 284826 | 303300

音轨  1
     文件名 G:\动感新势力\VOL.9\VOL.9 CD\01 音轨01.wav
     峰值电平 99.9 %
     抓取速度 6.4 X
     音轨质量 100.0 %
     复制 CRC 3A2E82FC
     音轨在 AccurateRip 数据库中无记录
     复制成功
音轨  2
     文件名 G:\动感新势力\VOL.9\VOL.9 CD\02 音轨02.wav
     峰值电平 99.8 %
     抓取速度 3.2 X
     音轨质量 100.0 %
     复制 CRC 1C38E595
     音轨在 AccurateRip 数据库中无记录
     复制成功
音轨  3
     文件名 G:\动感新势力\VOL.9\VOL.9 CD\03 音轨03.wav
     峰值电平 94.6 %
     抓取速度 2.1 X
     音轨质量 99.9 %
     复制 CRC 1A5C6958
     音轨在 AccurateRip 数据库中无记录
     复制成功
音轨  4
     文件名 G:\动感新势力\VOL.9\VOL.9 CD\04 音轨04.wav
     峰值电平 100.0 %
     抓取速度 2.9 X
     音轨质量 100.0 %
     复制 CRC AD88A6EC
     音轨在 AccurateRip 数据库中无记录
     复制成功
音轨  5
     文件名 G:\动感新势力\VOL.9\VOL.9 CD\05 音轨05.wav
     峰值电平 89.0 %
     抓取速度 2.2 X
     音轨质量 99.9 %
     复制 CRC 05632CF0
     音轨在 AccurateRip 数据库中无记录
     复制成功
音轨  6
     文件名 G:\动感新势力\VOL.9\VOL.9 CD\06 音轨06.wav
     峰值电平 89.0 %
     抓取速度 2.1 X
     音轨质量 99.9 %
     复制 CRC 1ABC78F9
     音轨在 AccurateRip 数据库中无记录
     复制成功
音轨  7
     文件名 G:\动感新势力\VOL.9\VOL.9 CD\07 音轨07.wav
     峰值电平 89.0 %
     抓取速度 3.1 X
     音轨质量 100.0 %
     复制 CRC B6A38BA3
     音轨在 AccurateRip 数据库中无记录
     复制成功
音轨  8
     文件名 G:\动感新势力\VOL.9\VOL.9 CD\08 音轨08.wav
     峰值电平 89.0 %
     抓取速度 2.1 X
     音轨质量 99.9 %
     复制 CRC D6298427
     音轨在 AccurateRip 数据库中无记录
     复制成功
音轨  9
     文件名 G:\动感新势力\VOL.9\VOL.9 CD\09 音轨09.wav
     峰值电平 89.0 %
     抓取速度 3.1 X
     音轨质量 100.0 %
     复制 CRC 32C27457
     音轨在 AccurateRip 数据库中无记录
     复制成功
音轨 10
     文件名 G:\动感新势力\VOL.9\VOL.9 CD\10 音轨10.wav
     峰值电平 100.0 %
     抓取速度 3.1 X
     音轨质量 100.0 %
     复制 CRC 01431949
     音轨在 AccurateRip 数据库中无记录
     复制成功
音轨 11
     文件名 G:\动感新势力\VOL.9\VOL.9 CD\11 音轨11.wav
     峰值电平 100.0 %
     抓取速度 3.0 X
     音轨质量 100.0 %
     复制 CRC 8F47A82E
     音轨在 AccurateRip 数据库中无记录
     复制成功
音轨 12
     文件名 G:\动感新势力\VOL.9\VOL.9 CD\12 音轨12.wav
     峰值电平 100.0 %
     抓取速度 2.1 X
     音轨质量 99.9 %
     复制 CRC 5775229F
     音轨在 AccurateRip 数据库中无记录
     复制成功
音轨 13
     文件名 G:\动感新势力\VOL.9\VOL.9 CD\13 音轨13.wav
     峰值电平 100.0 %
     抓取速度 3.0 X
     音轨质量 100.0 %
     复制 CRC F69B05E1
     音轨在 AccurateRip 数据库中无记录
     复制成功
音轨 14
     文件名 G:\动感新势力\VOL.9\VOL.9 CD\14 音轨14.wav
     峰值电平 98.4 %
     抓取速度 1.9 X
     音轨质量 99.9 %
     复制 CRC 6205B164
     音轨在 AccurateRip 数据库中无记录
     复制成功

没有任何音轨在 AccurateRip 数据库中有记录
没有错误发生
状态报告结尾
---- CUETools DB Plugin V2.1.6
[CTDB TOCID: PITXFGmgtMqHdPPCLiY1egKxI_k-] found
Submit result: PITXFGmgtMqHdPPCLiY1egKxI_k- has been confirmed
Track | CTDB Status
  1   | (2/2) Accurately ripped
  2   | (2/2) Accurately ripped
  3   | (2/2) Accurately ripped
  4   | (2/2) Accurately ripped
  5   | (2/2) Accurately ripped
  6   | (2/2) Accurately ripped
  7   | (2/2) Accurately ripped
  8   | (2/2) Accurately ripped
  9   | (2/2) Accurately ripped
10   | (2/2) Accurately ripped
11   | (2/2) Accurately ripped
12   | (2/2) Accurately ripped
13   | (2/2) Accurately ripped
14   | (2/2) Accurately ripped

评分

参与人数 1CD +320 收起 理由
最终之战 + 320 感谢分享资源,CD包因你而精彩.

查看全部评分




上一篇:原抓《侧耳倾听》动漫音乐精选 3CD WAV/分轨/度盘
下一篇:原抓《动感新势力》VOL.11 WAV/分轨/度盘 附VCD

0

主题

128

帖子

196

积分

乐坛新星

Rank: 2

积分
196

社区QQ达人

发表于 7 天前 | 显示全部楼层
最近想听动漫歌曲正需要谢谢了
您需要登录后才可以回帖 登录 | 注册

本版积分规则

快速回复 返回顶部 返回列表