查看: 112|回复: 1

原抓 《动感新势力》VOL.7 CD WAV/分轨/度盘 赠VCD

[复制链接]

65

主题

318

帖子

6463

积分

人气天王

Rank: 5Rank: 5

积分
6463
发表于 2016-11-26 19:06:37 | 显示全部楼层 |阅读模式

注册会员,获得无损资源下载地址,享受高品质音乐。

您需要 登录 才可以下载或查看,没有帐号?注册

x
IMG_20161126_185203_1.jpg
这次抓的是《动感新势力》VOL.7的CD,有十分经典的《晓之车》哦!附赠VCD里有《晓之车》、《暴风雨中的光辉》、《万能潜水舰新鹦鹉螺号》、《指轮》的MTV !
歌单:
01.For 水果篮子----《水果篮子》片头歌
02.小夜曲----《水果篮子》插曲
03.小小的祈祷----《水果篮子》片尾歌
04.Moment----《高达SEED》片头歌
05.晓之车----《高达SEED》插曲
06.归途----《魔力女管家》片头歌
07.Shooting Star----《星空的邂逅》片头歌
08.天空的森林----《星空的邂逅》片尾歌
09.Ring on the World----《ZOE dolores,i》片尾歌
10.风之甬道----《龙猫》插曲
11.更替的四季----《魔女宅急便》插曲
12.Strength----《X-预兆》片尾歌
13.地球仪----《圣斗士冥王篇》OVA版片头歌
14.悲运的巫女----《犬夜叉》BGM
15.Refrain of Memory----《灰羽联盟》BGM
16.H是不好的----《魔力女管家》插曲
CD链接:
游客,如果您要查看本帖隐藏内容请回复

密码:
游客,如果您要查看本帖隐藏内容请回复

VCD链接:
游客,如果您要查看本帖隐藏内容请回复

密码:
游客,如果您要查看本帖隐藏内容请回复

解压密码均为:www.cdbao.net

Exact Audio Copy V1.1 from 23. June 2015
EAC 抓取日志文件从26. 十一月 2016, 14:06
未知艺术家 / 未知标题
使用驱动器  :SONY    CD-RW  CRX230E   Adapter: 1  ID: 1
读取模式      : 可靠Secure
使用精确流     : 是
清空音频缓存    : 是
使用 C2 指示器 : 是
读取偏移校正:               : 6
读取 Lead-In 和 Lead-Out : 否
用静音填充抓取中丢失偏移的采样       : 是
去除首尾静音块               : 否
在CRC 计算中使用了空样本       : 是
已用接口                  : Win NT 及 2000 本地 Win32 接口
间隙处理                  : 没检测到,因此追加到上一曲目
所用输出模式: : 内部 WAV 函数
样本格式    : 44.100 Hz; 16 Bit; 立体声

已抓取 CD 的 TOC
     音轨 |    起始    |    长度    |  起始扇区  |  结束扇区  
    --------------------------------------------
      1 |  0:00.00 |  4:24.50 |      0 |  19849
      2 |  4:24.50 |  6:07.41 |  19850 |  47415
      3 | 10:32.16 |  3:22.13 |  47416 |  62578
      4 | 13:54.29 |  4:14.73 |  62579 |  81701
      5 | 18:09.27 |  5:02.71 |  81702 | 104422
      6 | 23:12.23 |  3:52.72 | 104423 | 121894
      7 | 27:05.20 |  5:26.05 | 121895 | 146349
      8 | 32:31.25 |  4:17.49 | 146350 | 165673
      9 | 36:48.74 |  4:39.33 | 165674 | 186631
     10 | 41:28.32 |  3:18.21 | 186632 | 201502
     11 | 44:46.53 |  3:27.06 | 201503 | 217033
     12 | 48:13.59 |  5:38.04 | 217034 | 242387
     13 | 53:51.63 |  4:06.34 | 242388 | 260871
     14 | 57:58.22 |  4:07.44 | 260872 | 279440
     15 | 62:05.66 |  1:48.33 | 279441 | 287573
     16 | 63:54.24 |  1:19.73 | 287574 | 293571

音轨  1
     文件名 G:\动感新势力\VOL.7 CD\01 音轨01.wav
     峰值电平 99.7 %
     抓取速度 5.1 X
     音轨质量 100.0 %
     复制 CRC B027142D
     音轨在 AccurateRip 数据库中无记录
     复制成功
音轨  2
     文件名 G:\动感新势力\VOL.7 CD\02 音轨02.wav
     峰值电平 99.7 %
     抓取速度 3.2 X
     音轨质量 100.0 %
     复制 CRC DAF52D1B
     音轨在 AccurateRip 数据库中无记录
     复制成功
音轨  3
     文件名 G:\动感新势力\VOL.7 CD\03 音轨03.wav
     峰值电平 99.7 %
     抓取速度 2.9 X
     音轨质量 100.0 %
     复制 CRC 5B214BAA
     音轨在 AccurateRip 数据库中无记录
     复制成功
音轨  4
     文件名 G:\动感新势力\VOL.7 CD\04 音轨04.wav
     峰值电平 89.0 %
     抓取速度 3.0 X
     音轨质量 100.0 %
     复制 CRC 0005B8BB
     音轨在 AccurateRip 数据库中无记录
     复制成功
音轨  5
     文件名 G:\动感新势力\VOL.7 CD\05 音轨05.wav
     峰值电平 89.0 %
     抓取速度 3.1 X
     音轨质量 100.0 %
     复制 CRC A50B9178
     音轨在 AccurateRip 数据库中无记录
     复制成功
音轨  6
     文件名 G:\动感新势力\VOL.7 CD\06 音轨06.wav
     峰值电平 97.9 %
     抓取速度 1.9 X
     音轨质量 99.9 %
     复制 CRC 25D9B439
     音轨在 AccurateRip 数据库中无记录
     复制成功
音轨  7
     文件名 G:\动感新势力\VOL.7 CD\07 音轨07.wav
     峰值电平 89.0 %
     抓取速度 3.1 X
     音轨质量 100.0 %
     复制 CRC F6CF5C10
     音轨在 AccurateRip 数据库中无记录
     复制成功
音轨  8
     文件名 G:\动感新势力\VOL.7 CD\08 音轨08.wav
     峰值电平 89.0 %
     抓取速度 3.0 X
     音轨质量 100.0 %
     复制 CRC 4981C74D
     音轨在 AccurateRip 数据库中无记录
     复制成功
音轨  9
     文件名 G:\动感新势力\VOL.7 CD\09 音轨09.wav
     峰值电平 98.8 %
     抓取速度 3.1 X
     音轨质量 100.0 %
     复制 CRC DE14F8F5
     音轨在 AccurateRip 数据库中无记录
     复制成功
音轨 10
     文件名 G:\动感新势力\VOL.7 CD\10 音轨10.wav
     峰值电平 70.3 %
     抓取速度 2.8 X
     音轨质量 100.0 %
     复制 CRC D54E33FF
     音轨在 AccurateRip 数据库中无记录
     复制成功
音轨 11
     文件名 G:\动感新势力\VOL.7 CD\11 音轨11.wav
     峰值电平 98.5 %
     抓取速度 2.9 X
     音轨质量 100.0 %
     复制 CRC 56A8A32C
     音轨在 AccurateRip 数据库中无记录
     复制成功
音轨 12
     文件名 G:\动感新势力\VOL.7 CD\12 音轨12.wav
     峰值电平 100.0 %
     抓取速度 3.1 X
     音轨质量 100.0 %
     复制 CRC 7A0B35C3
     音轨在 AccurateRip 数据库中无记录
     复制成功
音轨 13
     文件名 G:\动感新势力\VOL.7 CD\13 音轨13.wav
     峰值电平 89.0 %
     抓取速度 3.0 X
     音轨质量 100.0 %
     复制 CRC 18AF8E20
     音轨在 AccurateRip 数据库中无记录
     复制成功
音轨 14
     文件名 G:\动感新势力\VOL.7 CD\14 音轨14.wav
     峰值电平 89.0 %
     抓取速度 2.0 X
     音轨质量 99.9 %
     复制 CRC 0D8C16B4
     音轨在 AccurateRip 数据库中无记录
     复制成功
音轨 15
     文件名 G:\动感新势力\VOL.7 CD\15 音轨15.wav
     峰值电平 79.0 %
     抓取速度 2.4 X
     音轨质量 100.0 %
     复制 CRC 69D18C5D
     音轨在 AccurateRip 数据库中无记录
     复制成功
音轨 16
     文件名 G:\动感新势力\VOL.7 CD\16 音轨16.wav
     峰值电平 97.9 %
     抓取速度 1.0 X
     音轨质量 99.7 %
     复制 CRC D0FF6D93
     音轨在 AccurateRip 数据库中无记录
     复制成功

没有任何音轨在 AccurateRip 数据库中有记录
没有错误发生
状态报告结尾
---- CUETools DB Plugin V2.1.6
[CTDB TOCID: TrfDeJG42Ur1nvw0XHHMTzh2jbM-] disk not present in database
Submit result: TrfDeJG42Ur1nvw0XHHMTzh2jbM- has been uploaded




评分

参与人数 1CD +320 收起 理由
最终之战 + 320 感谢分享资源,CD包因你而精彩.

查看全部评分




上一篇:原抓《动感新势力》VOL.5 CD WAV/分轨/度盘
下一篇:原抓《侧耳倾听》动漫音乐精选 3CD WAV/分轨/度盘

0

主题

128

帖子

196

积分

乐坛新星

Rank: 2

积分
196

社区QQ达人

发表于 5 天前 | 显示全部楼层
不错谢谢分享了···················
您需要登录后才可以回帖 登录 | 注册

本版积分规则

快速回复 返回顶部 返回列表