查看: 136|回复: 6

原抓 《最终幻想 水晶旋律》 WAV/分轨/度盘

[复制链接]

63

主题

315

帖子

5808

积分

人气天王

Rank: 5Rank: 5

积分
5808
发表于 2016-11-25 19:17:04 | 显示全部楼层 |阅读模式

注册会员,获得无损资源下载地址,享受高品质音乐。

您需要 登录 才可以下载或查看,没有帐号?注册

x
本帖最后由 龙王机 于 2016-11-25 19:20 编辑

这次抓的是动漫游工作室出品的《最终幻想 水晶旋律》,共4张CD,包括了从《最终幻想》到《最终幻想XII》中的代表性音乐,还有歌曲哦!喜欢的玩家可以下来听听。至于曲目,我就不打了,实在太多太累人了......后面有读本曲目的照片,大家自己改吧......
链接:
游客,如果您要查看本帖隐藏内容请回复

密码:
游客,如果您要查看本帖隐藏内容请回复

解压密码:www.cdbao.net

CD A:
Exact Audio Copy V1.1 from 23. June 2015
EAC 抓取日志文件从25. 十一月 2016, 8:56
未知艺术家 / 未知标题
使用驱动器  :SONY    CD-RW  CRX230E   Adapter: 1  ID: 1
读取模式      : 可靠Secure
使用精确流     : 是
清空音频缓存    : 是
使用 C2 指示器 : 是
读取偏移校正:               : 6
读取 Lead-In 和 Lead-Out : 否
用静音填充抓取中丢失偏移的采样       : 是
去除首尾静音块               : 否
在CRC 计算中使用了空样本       : 是
已用接口                  : Win NT 及 2000 本地 Win32 接口
间隙处理                  : 没检测到,因此追加到上一曲目
所用输出模式: : 内部 WAV 函数
样本格式    : 44.100 Hz; 16 Bit; 立体声

已抓取 CD 的 TOC
     音轨 |    起始    |    长度    |  起始扇区  |  结束扇区  
    --------------------------------------------
      1 |  0:00.00 |  2:52.34 |      0 |  12933
      2 |  2:52.34 |  1:51.66 |  12934 |  21324
      3 |  4:44.25 |  3:44.72 |  21325 |  38196
      4 |  8:29.22 |  5:29.30 |  38197 |  62901
      5 | 13:58.52 |  4:26.41 |  62902 |  82892
      6 | 18:25.18 |  5:27.74 |  82893 | 107491
      7 | 23:53.17 |  3:44.23 | 107492 | 124314
      8 | 27:37.40 |  4:10.54 | 124315 | 143118
      9 | 31:48.19 |  5:03.19 | 143119 | 165862
     10 | 36:51.38 |  4:04.65 | 165863 | 184227
     11 | 40:56.28 |  5:38.13 | 184228 | 209590
     12 | 46:34.41 |  5:42.11 | 209591 | 235251
     13 | 52:16.52 |  5:34.08 | 235252 | 260309
     14 | 57:50.60 |  2:33.25 | 260310 | 271809
     15 | 60:24.10 |  3:54.00 | 271810 | 289359
     16 | 64:18.10 |  4:58.51 | 289360 | 311760
     17 | 69:16.61 |  5:13.39 | 311761 | 335274

音轨  1
     文件名 G:\最终幻想 水晶旋律\CD A\01 音轨01.wav
     峰值电平 91.1 %
     抓取速度 5.2 X
     音轨质量 100.0 %
     复制 CRC 2FBE5AC3
     音轨在 AccurateRip 数据库中无记录
     复制成功
音轨  2
     文件名 G:\最终幻想 水晶旋律\CD A\02 音轨02.wav
     峰值电平 91.0 %
     抓取速度 2.3 X
     音轨质量 100.0 %
     复制 CRC C4004ADC
     音轨在 AccurateRip 数据库中无记录
     复制成功
音轨  3
     文件名 G:\最终幻想 水晶旋律\CD A\03 音轨03.wav
     峰值电平 91.0 %
     抓取速度 1.9 X
     音轨质量 99.9 %
     复制 CRC CCD478C2
     音轨在 AccurateRip 数据库中无记录
     复制成功
音轨  4
     文件名 G:\最终幻想 水晶旋律\CD A\04 音轨04.wav
     峰值电平 91.0 %
     抓取速度 3.1 X
     音轨质量 100.0 %
     复制 CRC CF51E3D8
     音轨在 AccurateRip 数据库中无记录
     复制成功
音轨  5
     文件名 G:\最终幻想 水晶旋律\CD A\05 音轨05.wav
     峰值电平 90.7 %
     抓取速度 3.0 X
     音轨质量 100.0 %
     复制 CRC D68A6D00
     音轨在 AccurateRip 数据库中无记录
     复制成功
音轨  6
     文件名 G:\最终幻想 水晶旋律\CD A\06 音轨06.wav
     峰值电平 91.0 %
     抓取速度 3.2 X
     音轨质量 100.0 %
     复制 CRC F7863C58
     音轨在 AccurateRip 数据库中无记录
     复制成功
音轨  7
     文件名 G:\最终幻想 水晶旋律\CD A\07 音轨07.wav
     峰值电平 91.0 %
     抓取速度 1.9 X
     音轨质量 99.9 %
     复制 CRC D7E194A1
     音轨在 AccurateRip 数据库中无记录
     复制成功
音轨  8
     文件名 G:\最终幻想 水晶旋律\CD A\08 音轨08.wav
     峰值电平 91.0 %
     抓取速度 3.0 X
     音轨质量 100.0 %
     复制 CRC C3A57F37
     音轨在 AccurateRip 数据库中无记录
     复制成功
音轨  9
     文件名 G:\最终幻想 水晶旋律\CD A\09 音轨09.wav
     峰值电平 52.8 %
     抓取速度 3.1 X
     音轨质量 100.0 %
     复制 CRC 60B2ACEA
     音轨在 AccurateRip 数据库中无记录
     复制成功
音轨 10
     文件名 G:\最终幻想 水晶旋律\CD A\10 音轨10.wav
     峰值电平 68.3 %
     抓取速度 3.0 X
     音轨质量 100.0 %
     复制 CRC B333F52D
     音轨在 AccurateRip 数据库中无记录
     复制成功
音轨 11
     文件名 G:\最终幻想 水晶旋律\CD A\11 音轨11.wav
     峰值电平 90.9 %
     抓取速度 3.1 X
     音轨质量 100.0 %
     复制 CRC 217AFB2B
     音轨在 AccurateRip 数据库中无记录
     复制成功
音轨 12
     文件名 G:\最终幻想 水晶旋律\CD A\12 音轨12.wav
     峰值电平 91.0 %
     抓取速度 3.2 X
     音轨质量 100.0 %
     复制 CRC A5334249
     音轨在 AccurateRip 数据库中无记录
     复制成功
音轨 13
     文件名 G:\最终幻想 水晶旋律\CD A\13 音轨13.wav
     峰值电平 91.2 %
     抓取速度 3.1 X
     音轨质量 100.0 %
     复制 CRC 14D7286C
     音轨在 AccurateRip 数据库中无记录
     复制成功
音轨 14
     文件名 G:\最终幻想 水晶旋律\CD A\14 音轨14.wav
     峰值电平 91.3 %
     抓取速度 2.7 X
     音轨质量 100.0 %
     复制 CRC 0E028A59
     音轨在 AccurateRip 数据库中无记录
     复制成功
音轨 15
     文件名 G:\最终幻想 水晶旋律\CD A\15 音轨15.wav
     峰值电平 91.2 %
     抓取速度 3.0 X
     音轨质量 100.0 %
     复制 CRC EE3218B4
     音轨在 AccurateRip 数据库中无记录
     复制成功
音轨 16
     文件名 G:\最终幻想 水晶旋律\CD A\16 音轨16.wav
     峰值电平 91.1 %
     抓取速度 3.1 X
     音轨质量 100.0 %
     复制 CRC 6349C673
     音轨在 AccurateRip 数据库中无记录
     复制成功
音轨 17
     文件名 G:\最终幻想 水晶旋律\CD A\17 音轨17.wav
     峰值电平 91.3 %
     抓取速度 3.1 X
     音轨质量 100.0 %
     复制 CRC E5DED754
     音轨在 AccurateRip 数据库中无记录
     复制成功

没有任何音轨在 AccurateRip 数据库中有记录
没有错误发生
状态报告结尾
---- CUETools DB Plugin V2.1.6
[CTDB TOCID: IdkHy7GXarB12eKZWnipkRFzWUM-] found
Submit result: IdkHy7GXarB12eKZWnipkRFzWUM- has been confirmed
Track | CTDB Status
  1   | (3/3) Accurately ripped
  2   | (3/3) Accurately ripped
  3   | (3/3) Accurately ripped
  4   | (3/3) Accurately ripped
  5   | (3/3) Accurately ripped
  6   | (3/3) Accurately ripped
  7   | (3/3) Accurately ripped
  8   | (3/3) Accurately ripped
  9   | (3/3) Accurately ripped
10   | (3/3) Accurately ripped
11   | (3/3) Accurately ripped
12   | (3/3) Accurately ripped
13   | (3/3) Accurately ripped
14   | (3/3) Accurately ripped
15   | (3/3) Accurately ripped
16   | (3/3) Accurately ripped
17   | (3/3) Accurately ripped

CD B:
Exact Audio Copy V1.1 from 23. June 2015
EAC 抓取日志文件从25. 十一月 2016, 9:20
未知艺术家 / 未知标题
使用驱动器  :SONY    CD-RW  CRX230E   Adapter: 1  ID: 1
读取模式      : 可靠Secure
使用精确流     : 是
清空音频缓存    : 是
使用 C2 指示器 : 是
读取偏移校正:               : 6
读取 Lead-In 和 Lead-Out : 否
用静音填充抓取中丢失偏移的采样       : 是
去除首尾静音块               : 否
在CRC 计算中使用了空样本       : 是
已用接口                  : Win NT 及 2000 本地 Win32 接口
间隙处理                  : 没检测到,因此追加到上一曲目
所用输出模式: : 内部 WAV 函数
样本格式    : 44.100 Hz; 16 Bit; 立体声

已抓取 CD 的 TOC
     音轨 |    起始    |    长度    |  起始扇区  |  结束扇区  
    --------------------------------------------
      1 |  0:00.00 |  2:15.19 |      0 |  10143
      2 |  2:15.19 |  2:37.44 |  10144 |  21962
      3 |  4:52.63 |  1:45.44 |  21963 |  29881
      4 |  6:38.32 |  1:53.35 |  29882 |  38391
      5 |  8:31.67 |  2:06.22 |  38392 |  47863
      6 | 10:38.14 |  2:26.09 |  47864 |  58822
      7 | 13:04.23 |  2:50.16 |  58823 |  71588
      8 | 15:54.39 |  2:44.07 |  71589 |  83895
      9 | 18:38.46 |  1:03.26 |  83896 |  88646
     10 | 19:41.72 |  1:18.64 |  88647 |  94560
     11 | 21:00.61 |  1:53.51 |  94561 | 103086
     12 | 22:54.37 |  4:47.43 | 103087 | 124654
     13 | 27:42.05 |  3:11.20 | 124655 | 138999
     14 | 30:53.25 |  4:12.59 | 139000 | 157958
     15 | 35:06.09 |  3:13.11 | 157959 | 172444
     16 | 38:19.20 |  1:14.53 | 172445 | 178047
     17 | 39:33.73 |  1:46.49 | 178048 | 186046
     18 | 41:20.47 |  2:37.15 | 186047 | 197836
     19 | 43:57.62 |  2:36.19 | 197837 | 209555
     20 | 46:34.06 |  2:42.16 | 209556 | 221721
     21 | 49:16.22 |  1:50.70 | 221722 | 230041
     22 | 51:07.17 |  4:45.44 | 230042 | 251460

音轨  1
     文件名 G:\最终幻想 水晶旋律\CD B\01 音轨01.wav
     峰值电平 90.7 %
     抓取速度 4.6 X
     音轨质量 100.0 %
     复制 CRC 33840602
     音轨在 AccurateRip 数据库中无记录
     复制成功
音轨  2
     文件名 G:\最终幻想 水晶旋律\CD B\02 音轨02.wav
     峰值电平 91.4 %
     抓取速度 2.6 X
     音轨质量 100.0 %
     复制 CRC 3BD3CB99
     音轨在 AccurateRip 数据库中无记录
     复制成功
音轨  3
     文件名 G:\最终幻想 水晶旋律\CD B\03 音轨03.wav
     峰值电平 91.0 %
     抓取速度 2.5 X
     音轨质量 100.0 %
     复制 CRC 2C084FB6
     音轨在 AccurateRip 数据库中无记录
     复制成功
音轨  4
     文件名 G:\最终幻想 水晶旋律\CD B\04 音轨04.wav
     峰值电平 91.0 %
     抓取速度 1.2 X
     音轨质量 99.8 %
     复制 CRC 7DFA3CBD
     音轨在 AccurateRip 数据库中无记录
     复制成功
音轨  5
     文件名 G:\最终幻想 水晶旋律\CD B\05 音轨05.wav
     峰值电平 91.0 %
     抓取速度 2.5 X
     音轨质量 100.0 %
     复制 CRC D58354D4
     音轨在 AccurateRip 数据库中无记录
     复制成功
音轨  6
     文件名 G:\最终幻想 水晶旋律\CD B\06 音轨06.wav
     峰值电平 91.0 %
     抓取速度 2.7 X
     音轨质量 100.0 %
     复制 CRC B9D604EA
     音轨在 AccurateRip 数据库中无记录
     复制成功
音轨  7
     文件名 G:\最终幻想 水晶旋律\CD B\07 音轨07.wav
     峰值电平 90.6 %
     抓取速度 2.8 X
     音轨质量 100.0 %
     复制 CRC 02660FB7
     音轨在 AccurateRip 数据库中无记录
     复制成功
音轨  8
     文件名 G:\最终幻想 水晶旋律\CD B\08 音轨08.wav
     峰值电平 91.0 %
     抓取速度 1.6 X
     音轨质量 99.8 %
     复制 CRC AF47CADC
     音轨在 AccurateRip 数据库中无记录
     复制成功
音轨  9
     文件名 G:\最终幻想 水晶旋律\CD B\09 音轨09.wav
     峰值电平 90.9 %
     抓取速度 1.9 X
     音轨质量 100.0 %
     复制 CRC 862069A7
     音轨在 AccurateRip 数据库中无记录
     复制成功
音轨 10
     文件名 G:\最终幻想 水晶旋律\CD B\10 音轨10.wav
     峰值电平 90.9 %
     抓取速度 2.2 X
     音轨质量 100.0 %
     复制 CRC 5739C203
     音轨在 AccurateRip 数据库中无记录
     复制成功
音轨 11
     文件名 G:\最终幻想 水晶旋律\CD B\11 音轨11.wav
     峰值电平 90.8 %
     抓取速度 2.5 X
     音轨质量 100.0 %
     复制 CRC 8CCD9671
     音轨在 AccurateRip 数据库中无记录
     复制成功
音轨 12
     文件名 G:\最终幻想 水晶旋律\CD B\12 音轨12.wav
     峰值电平 91.0 %
     抓取速度 3.1 X
     音轨质量 100.0 %
     复制 CRC A3909F1E
     音轨在 AccurateRip 数据库中无记录
     复制成功
音轨 13
     文件名 G:\最终幻想 水晶旋律\CD B\13 音轨13.wav
     峰值电平 91.0 %
     抓取速度 2.9 X
     音轨质量 100.0 %
     复制 CRC D65DE2DB
     音轨在 AccurateRip 数据库中无记录
     复制成功
音轨 14
     文件名 G:\最终幻想 水晶旋律\CD B\14 音轨14.wav
     峰值电平 91.0 %
     抓取速度 3.0 X
     音轨质量 100.0 %
     复制 CRC 9C007ABE
     音轨在 AccurateRip 数据库中无记录
     复制成功
音轨 15
     文件名 G:\最终幻想 水晶旋律\CD B\15 音轨15.wav
     峰值电平 91.0 %
     抓取速度 2.9 X
     音轨质量 100.0 %
     复制 CRC 9EEEE292
     音轨在 AccurateRip 数据库中无记录
     复制成功
音轨 16
     文件名 G:\最终幻想 水晶旋律\CD B\16 音轨16.wav
     峰值电平 91.0 %
     抓取速度 2.1 X
     音轨质量 100.0 %
     复制 CRC AD29DBD5
     音轨在 AccurateRip 数据库中无记录
     复制成功
音轨 17
     文件名 G:\最终幻想 水晶旋律\CD B\17 音轨17.wav
     峰值电平 91.0 %
     抓取速度 2.5 X
     音轨质量 100.0 %
     复制 CRC 0784E0AB
     音轨在 AccurateRip 数据库中无记录
     复制成功
音轨 18
     文件名 G:\最终幻想 水晶旋律\CD B\18 音轨18.wav
     峰值电平 91.0 %
     抓取速度 2.8 X
     音轨质量 100.0 %
     复制 CRC FBF0DA8C
     音轨在 AccurateRip 数据库中无记录
     复制成功
音轨 19
     文件名 G:\最终幻想 水晶旋律\CD B\19 音轨19.wav
     峰值电平 91.3 %
     抓取速度 2.7 X
     音轨质量 100.0 %
     复制 CRC 6832C897
     音轨在 AccurateRip 数据库中无记录
     复制成功
音轨 20
     文件名 G:\最终幻想 水晶旋律\CD B\20 音轨20.wav
     峰值电平 91.0 %
     抓取速度 1.6 X
     音轨质量 99.8 %
     复制 CRC 021BEC30
     音轨在 AccurateRip 数据库中无记录
     复制成功
音轨 21
     文件名 G:\最终幻想 水晶旋律\CD B\21 音轨21.wav
     峰值电平 90.7 %
     抓取速度 2.4 X
     音轨质量 100.0 %
     复制 CRC 8BB7C34E
     音轨在 AccurateRip 数据库中无记录
     复制成功
音轨 22
     文件名 G:\最终幻想 水晶旋律\CD B\22 音轨22.wav
     峰值电平 91.0 %
     抓取速度 3.1 X
     音轨质量 100.0 %
     复制 CRC 382C0ED6
     音轨在 AccurateRip 数据库中无记录
     复制成功

没有任何音轨在 AccurateRip 数据库中有记录
没有错误发生
状态报告结尾
---- CUETools DB Plugin V2.1.6
[CTDB TOCID: vrbersq_MCaPMwx6.3e2NxHh62w-] disk not present in database
Submit result: vrbersq_MCaPMwx6.3e2NxHh62w- has been uploaded

------------------------------------------------------------

CD C:
Exact Audio Copy V1.1 from 23. June 2015
EAC 抓取日志文件从25. 十一月 2016, 9:45
未知艺术家 / 未知标题
使用驱动器  :SONY    CD-RW  CRX230E   Adapter: 1  ID: 1
读取模式      : 可靠Secure
使用精确流     : 是
清空音频缓存    : 是
使用 C2 指示器 : 是
读取偏移校正:               : 6
读取 Lead-In 和 Lead-Out : 否
用静音填充抓取中丢失偏移的采样       : 是
去除首尾静音块               : 否
在CRC 计算中使用了空样本       : 是
已用接口                  : Win NT 及 2000 本地 Win32 接口
间隙处理                  : 没检测到,因此追加到上一曲目
所用输出模式: : 内部 WAV 函数
样本格式    : 44.100 Hz; 16 Bit; 立体声

已抓取 CD 的 TOC
     音轨 |    起始    |    长度    |  起始扇区  |  结束扇区  
    --------------------------------------------
      1 |  0:00.00 |  2:03.34 |      0 |   9258
      2 |  2:03.34 |  1:43.62 |   9259 |  17045
      3 |  3:47.21 |  1:55.60 |  17046 |  25730
      4 |  5:43.06 |  3:52.58 |  25731 |  43188
      5 |  9:35.64 |  2:54.23 |  43189 |  56261
      6 | 12:30.12 |  5:55.07 |  56262 |  82893
      7 | 18:25.19 |  2:58.31 |  82894 |  96274
      8 | 21:23.50 |  2:47.19 |  96275 | 108818
      9 | 24:10.69 |  6:27.55 | 108819 | 137898
     10 | 30:38.49 |  3:42.36 | 137899 | 154584
     11 | 34:21.10 |  2:50.31 | 154585 | 167365
     12 | 37:11.41 |  3:36.16 | 167366 | 183581
     13 | 40:47.57 |  4:18.18 | 183582 | 202949
     14 | 45:06.00 |  4:26.41 | 202950 | 222940
     15 | 49:32.41 |  3:08.00 | 222941 | 237040
     16 | 52:40.41 |  2:52.07 | 237041 | 249947
     17 | 55:32.48 |  3:36.55 | 249948 | 266202
     18 | 59:09.28 |  3:14.00 | 266203 | 280752
     19 | 62:23.28 |  4:37.29 | 280753 | 301556

音轨  1
     文件名 G:\最终幻想 水晶旋律\CD C\01 音轨01.wav
     峰值电平 90.7 %
     抓取速度 4.6 X
     音轨质量 100.0 %
     复制 CRC FA3506E3
     音轨在 AccurateRip 数据库中无记录
     复制成功
音轨  2
     文件名 G:\最终幻想 水晶旋律\CD C\02 音轨02.wav
     峰值电平 91.0 %
     抓取速度 2.3 X
     音轨质量 100.0 %
     复制 CRC 65D47047
     音轨在 AccurateRip 数据库中无记录
     复制成功
音轨  3
     文件名 G:\最终幻想 水晶旋律\CD C\03 音轨03.wav
     峰值电平 91.0 %
     抓取速度 2.5 X
     音轨质量 100.0 %
     复制 CRC EAFF140B
     音轨在 AccurateRip 数据库中无记录
     复制成功
音轨  4
     文件名 G:\最终幻想 水晶旋律\CD C\04 音轨04.wav
     峰值电平 91.5 %
     抓取速度 3.0 X
     音轨质量 100.0 %
     复制 CRC 629770A6
     音轨在 AccurateRip 数据库中无记录
     复制成功
音轨  5
     文件名 G:\最终幻想 水晶旋律\CD C\05 音轨05.wav
     峰值电平 90.7 %
     抓取速度 1.6 X
     音轨质量 99.8 %
     复制 CRC 3A766644
     音轨在 AccurateRip 数据库中无记录
     复制成功
音轨  6
     文件名 G:\最终幻想 水晶旋律\CD C\06 音轨06.wav
     峰值电平 91.0 %
     抓取速度 3.2 X
     音轨质量 100.0 %
     复制 CRC 317B34DC
     音轨在 AccurateRip 数据库中无记录
     复制成功
音轨  7
     文件名 G:\最终幻想 水晶旋律\CD C\07 音轨07.wav
     峰值电平 91.1 %
     抓取速度 2.8 X
     音轨质量 100.0 %
     复制 CRC 05AD3A66
     音轨在 AccurateRip 数据库中无记录
     复制成功
音轨  8
     文件名 G:\最终幻想 水晶旋律\CD C\08 音轨08.wav
     峰值电平 91.0 %
     抓取速度 2.8 X
     音轨质量 100.0 %
     复制 CRC 9E8FFE9D
     音轨在 AccurateRip 数据库中无记录
     复制成功
音轨  9
     文件名 G:\最终幻想 水晶旋律\CD C\09 音轨09.wav
     峰值电平 91.0 %
     抓取速度 3.2 X
     音轨质量 100.0 %
     复制 CRC 0EC690C7
     音轨在 AccurateRip 数据库中无记录
     复制成功
音轨 10
     文件名 G:\最终幻想 水晶旋律\CD C\10 音轨10.wav
     峰值电平 91.0 %
     抓取速度 3.0 X
     音轨质量 100.0 %
     复制 CRC E60CCB29
     音轨在 AccurateRip 数据库中无记录
     复制成功
音轨 11
     文件名 G:\最终幻想 水晶旋律\CD C\11 音轨11.wav
     峰值电平 91.0 %
     抓取速度 2.8 X
     音轨质量 100.0 %
     复制 CRC CF90D44C
     音轨在 AccurateRip 数据库中无记录
     复制成功
音轨 12
     文件名 G:\最终幻想 水晶旋律\CD C\12 音轨12.wav
     峰值电平 91.0 %
     抓取速度 2.9 X
     音轨质量 100.0 %
     复制 CRC 9F0DE1C6
     音轨在 AccurateRip 数据库中无记录
     复制成功
音轨 13
     文件名 G:\最终幻想 水晶旋律\CD C\13 音轨13.wav
     峰值电平 90.8 %
     抓取速度 3.1 X
     音轨质量 100.0 %
     复制 CRC D54D5DB8
     音轨在 AccurateRip 数据库中无记录
     复制成功
音轨 14
     文件名 G:\最终幻想 水晶旋律\CD C\14 音轨14.wav
     峰值电平 91.3 %
     抓取速度 3.1 X
     音轨质量 100.0 %
     复制 CRC B8ABD689
     音轨在 AccurateRip 数据库中无记录
     复制成功
音轨 15
     文件名 G:\最终幻想 水晶旋律\CD C\15 音轨15.wav
     峰值电平 91.2 %
     抓取速度 1.7 X
     音轨质量 99.8 %
     复制 CRC A8E7E785
     音轨在 AccurateRip 数据库中无记录
     复制成功
音轨 16
     文件名 G:\最终幻想 水晶旋律\CD C\16 音轨16.wav
     峰值电平 91.2 %
     抓取速度 1.6 X
     音轨质量 99.8 %
     复制 CRC AA8CF7A4
     音轨在 AccurateRip 数据库中无记录
     复制成功
音轨 17
     文件名 G:\最终幻想 水晶旋律\CD C\17 音轨17.wav
     峰值电平 91.1 %
     抓取速度 2.9 X
     音轨质量 100.0 %
     复制 CRC DCA90757
     音轨在 AccurateRip 数据库中无记录
     复制成功
音轨 18
     文件名 G:\最终幻想 水晶旋律\CD C\18 音轨18.wav
     峰值电平 91.0 %
     抓取速度 2.9 X
     音轨质量 100.0 %
     复制 CRC 689837D2
     音轨在 AccurateRip 数据库中无记录
     复制成功
音轨 19
     文件名 G:\最终幻想 水晶旋律\CD C\19 音轨19.wav
     峰值电平 91.0 %
     抓取速度 3.0 X
     音轨质量 100.0 %
     复制 CRC E44ADC60
     音轨在 AccurateRip 数据库中无记录
     复制成功

没有任何音轨在 AccurateRip 数据库中有记录
没有错误发生
状态报告结尾
---- CUETools DB Plugin V2.1.6
[CTDB TOCID: abH_XM1rpat.qM9SYDF0BUvv15Y-] disk not present in database
Submit result: abH_XM1rpat.qM9SYDF0BUvv15Y- has been uploaded

CD D:
Exact Audio Copy V1.1 from 23. June 2015
EAC 抓取日志文件从25. 十一月 2016, 10:12
未知艺术家 / 未知标题
使用驱动器  :SONY    CD-RW  CRX230E   Adapter: 1  ID: 1
读取模式      : 可靠Secure
使用精确流     : 是
清空音频缓存    : 是
使用 C2 指示器 : 是
读取偏移校正:               : 6
读取 Lead-In 和 Lead-Out : 否
用静音填充抓取中丢失偏移的采样       : 是
去除首尾静音块               : 否
在CRC 计算中使用了空样本       : 是
已用接口                  : Win NT 及 2000 本地 Win32 接口
间隙处理                  : 没检测到,因此追加到上一曲目
所用输出模式: : 内部 WAV 函数
样本格式    : 44.100 Hz; 16 Bit; 立体声

已抓取 CD 的 TOC
     音轨 |    起始    |    长度    |  起始扇区  |  结束扇区  
    --------------------------------------------
      1 |  0:00.00 |  2:08.49 |      0 |   9648
      2 |  2:08.49 |  2:07.29 |   9649 |  19202
      3 |  4:16.03 |  2:40.39 |  19203 |  31241
      4 |  6:56.42 |  2:34.11 |  31242 |  42802
      5 |  9:30.53 |  2:36.21 |  42803 |  54523
      6 | 12:06.74 |  3:14.18 |  54524 |  69091
      7 | 15:21.17 |  3:29.53 |  69092 |  84819
      8 | 18:50.70 |  3:04.69 |  84820 |  98688
      9 | 21:55.64 |  3:21.71 |  98689 | 113834
     10 | 25:17.60 |  2:49.06 | 113835 | 126515
     11 | 28:06.66 |  1:33.33 | 126516 | 133523
     12 | 29:40.24 |  2:44.33 | 133524 | 145856
     13 | 32:24.57 |  2:37.74 | 145857 | 157705
     14 | 35:02.56 |  2:00.63 | 157706 | 166768
     15 | 37:03.44 |  3:00.43 | 166769 | 180311
     16 | 40:04.12 |  2:27.67 | 180312 | 191403
     17 | 42:32.04 |  4:34.54 | 191404 | 212007
     18 | 47:06.58 |  4:57.18 | 212008 | 234300
     19 | 52:04.01 |  2:27.09 | 234301 | 245334
     20 | 54:31.10 |  2:18.04 | 245335 | 255688
     21 | 56:49.14 |  0:37.13 | 255689 | 258476
     22 | 57:26.27 |  2:11.16 | 258477 | 268317
     23 | 59:37.43 |  2:58.74 | 268318 | 281741
     24 | 62:36.42 |  3:56.48 | 281742 | 299489

音轨  1
     文件名 G:\最终幻想 水晶旋律\CD D\01 音轨01.wav
     峰值电平 91.0 %
     抓取速度 4.6 X
     音轨质量 100.0 %
     复制 CRC 32E2B415
     音轨在 AccurateRip 数据库中无记录
     复制成功
音轨  2
     文件名 G:\最终幻想 水晶旋律\CD D\02 音轨02.wav
     峰值电平 91.3 %
     抓取速度 2.5 X
     音轨质量 100.0 %
     复制 CRC 0015B24D
     音轨在 AccurateRip 数据库中无记录
     复制成功
音轨  3
     文件名 G:\最终幻想 水晶旋律\CD D\03 音轨03.wav
     峰值电平 91.3 %
     抓取速度 2.7 X
     音轨质量 100.0 %
     复制 CRC ED0667F2
     音轨在 AccurateRip 数据库中无记录
     复制成功
音轨  4
     文件名 G:\最终幻想 水晶旋律\CD D\04 音轨04.wav
     峰值电平 91.0 %
     抓取速度 2.7 X
     音轨质量 100.0 %
     复制 CRC CA8F6654
     音轨在 AccurateRip 数据库中无记录
     复制成功
音轨  5
     文件名 G:\最终幻想 水晶旋律\CD D\05 音轨05.wav
     峰值电平 91.4 %
     抓取速度 2.7 X
     音轨质量 100.0 %
     复制 CRC 9A1BD803
     音轨在 AccurateRip 数据库中无记录
     复制成功
音轨  6
     文件名 G:\最终幻想 水晶旋律\CD D\06 音轨06.wav
     峰值电平 91.0 %
     抓取速度 2.9 X
     音轨质量 100.0 %
     复制 CRC E4C725DD
     音轨在 AccurateRip 数据库中无记录
     复制成功
音轨  7
     文件名 G:\最终幻想 水晶旋律\CD D\07 音轨07.wav
     峰值电平 91.0 %
     抓取速度 1.8 X
     音轨质量 99.8 %
     复制 CRC 783CA770
     音轨在 AccurateRip 数据库中无记录
     复制成功
音轨  8
     文件名 G:\最终幻想 水晶旋律\CD D\08 音轨08.wav
     峰值电平 91.0 %
     抓取速度 2.8 X
     音轨质量 100.0 %
     复制 CRC 24207F1D
     音轨在 AccurateRip 数据库中无记录
     复制成功
音轨  9
     文件名 G:\最终幻想 水晶旋律\CD D\09 音轨09.wav
     峰值电平 91.1 %
     抓取速度 2.9 X
     音轨质量 100.0 %
     复制 CRC 57196A50
     音轨在 AccurateRip 数据库中无记录
     复制成功
音轨 10
     文件名 G:\最终幻想 水晶旋律\CD D\10 音轨10.wav
     峰值电平 90.8 %
     抓取速度 2.8 X
     音轨质量 100.0 %
     复制 CRC 5C1D78EB
     音轨在 AccurateRip 数据库中无记录
     复制成功
音轨 11
     文件名 G:\最终幻想 水晶旋律\CD D\11 音轨11.wav
     峰值电平 91.2 %
     抓取速度 2.4 X
     音轨质量 100.0 %
     复制 CRC 4CB1B1CA
     音轨在 AccurateRip 数据库中无记录
     复制成功
音轨 12
     文件名 G:\最终幻想 水晶旋律\CD D\12 音轨12.wav
     峰值电平 91.1 %
     抓取速度 1.6 X
     音轨质量 99.8 %
     复制 CRC A5146993
     音轨在 AccurateRip 数据库中无记录
     复制成功
音轨 13
     文件名 G:\最终幻想 水晶旋律\CD D\13 音轨13.wav
     峰值电平 91.0 %
     抓取速度 2.7 X
     音轨质量 100.0 %
     复制 CRC E4A7E04C
     音轨在 AccurateRip 数据库中无记录
     复制成功
音轨 14
     文件名 G:\最终幻想 水晶旋律\CD D\14 音轨14.wav
     峰值电平 91.3 %
     抓取速度 2.5 X
     音轨质量 100.0 %
     复制 CRC 86E60FB8
     音轨在 AccurateRip 数据库中无记录
     复制成功
音轨 15
     文件名 G:\最终幻想 水晶旋律\CD D\15 音轨15.wav
     峰值电平 91.0 %
     抓取速度 2.8 X
     音轨质量 100.0 %
     复制 CRC B58B4881
     音轨在 AccurateRip 数据库中无记录
     复制成功
音轨 16
     文件名 G:\最终幻想 水晶旋律\CD D\16 音轨16.wav
     峰值电平 91.1 %
     抓取速度 2.7 X
     音轨质量 100.0 %
     复制 CRC 3C63C27F
     音轨在 AccurateRip 数据库中无记录
     复制成功
音轨 17
     文件名 G:\最终幻想 水晶旋律\CD D\17 音轨17.wav
     峰值电平 91.0 %
     抓取速度 3.0 X
     音轨质量 100.0 %
     复制 CRC 59102454
     音轨在 AccurateRip 数据库中无记录
     复制成功
音轨 18
     文件名 G:\最终幻想 水晶旋律\CD D\18 音轨18.wav
     峰值电平 91.0 %
     抓取速度 3.1 X
     音轨质量 100.0 %
     复制 CRC 8042D911
     音轨在 AccurateRip 数据库中无记录
     复制成功
音轨 19
     文件名 G:\最终幻想 水晶旋律\CD D\19 音轨19.wav
     峰值电平 91.0 %
     抓取速度 2.7 X
     音轨质量 100.0 %
     复制 CRC 5C6BF1FF
     音轨在 AccurateRip 数据库中无记录
     复制成功
音轨 20
     文件名 G:\最终幻想 水晶旋律\CD D\20 音轨20.wav
     峰值电平 91.3 %
     抓取速度 2.7 X
     音轨质量 100.0 %
     复制 CRC EDC06442
     音轨在 AccurateRip 数据库中无记录
     复制成功
音轨 21
     文件名 G:\最终幻想 水晶旋律\CD D\21 音轨21.wav
     峰值电平 91.3 %
     抓取速度 1.5 X
     音轨质量 100.0 %
     复制 CRC E9E56B07
     音轨在 AccurateRip 数据库中无记录
     复制成功
音轨 22
     文件名 G:\最终幻想 水晶旋律\CD D\22 音轨22.wav
     峰值电平 91.0 %
     抓取速度 2.6 X
     音轨质量 100.0 %
     复制 CRC C3D6C465
     音轨在 AccurateRip 数据库中无记录
     复制成功
音轨 23
     文件名 G:\最终幻想 水晶旋律\CD D\23 音轨23.wav
     峰值电平 91.5 %
     抓取速度 2.8 X
     音轨质量 100.0 %
     复制 CRC 679739D6
     音轨在 AccurateRip 数据库中无记录
     复制成功
音轨 24
     文件名 G:\最终幻想 水晶旋律\CD D\24 音轨24.wav
     峰值电平 91.0 %
     抓取速度 2.9 X
     音轨质量 100.0 %
     复制 CRC FB7BCA62
     音轨在 AccurateRip 数据库中无记录
     复制成功

没有任何音轨在 AccurateRip 数据库中有记录
没有错误发生
状态报告结尾
---- CUETools DB Plugin V2.1.6
[CTDB TOCID: vAVjMudFSjLl3.bTZehG95sGZ0o-] disk not present in database
Submit result: vAVjMudFSjLl3.bTZehG95sGZ0o- has been uploaded




更多图片 小图 大图
组图打开中,请稍候......

评分

参与人数 1CD +400 收起 理由
最终之战 + 400 论坛有你,真是坛友的福气

查看全部评分




上一篇:原抓 传说系列音乐盛典《天籁传说》 WAV/分轨/度盘
下一篇:原抓《游戏·人》VOL.1 CD WAV/分轨/度盘

0

主题

195

帖子

303

积分

乐坛新星

Rank: 2

积分
303
发表于 2016-11-25 21:54:38 | 显示全部楼层
最终幻想系列的音乐是经典中的经典,植松伸夫

0

主题

109

帖子

524

积分

职业歌手

Rank: 3Rank: 3

积分
524
发表于 2016-11-25 22:19:58 | 显示全部楼层
最近下载的音频文件都是杂音,怎么回事呢

0

主题

66

帖子

678

积分

职业歌手

Rank: 3Rank: 3

积分
678
发表于 2016-11-26 09:03:27 | 显示全部楼层
碉堡了!!!!!!!!!

0

主题

328

帖子

1752

积分

当红偶像

Rank: 4

积分
1752

社区QQ达人

发表于 2016-11-26 10:23:44 | 显示全部楼层
动漫音乐一向非常不错的,下了好好收藏

0

主题

52

帖子

135

积分

新人会员,请认真回复,若恶意回复,直接封号

Rank: 1

积分
135

社区QQ达人

QQ
发表于 2016-11-26 12:35:54 | 显示全部楼层
感谢分享!!!感谢分享!!!

0

主题

904

帖子

833

积分

职业歌手

Rank: 3Rank: 3

积分
833
发表于 5 天前 | 显示全部楼层

多谢分享,楼主辛苦了,下来试听。
您需要登录后才可以回帖 登录 | 注册

本版积分规则

快速回复 返回顶部 返回列表