查看: 113|回复: 2

原抓:Penicillin《Penicillin In Rock Opera Hamlet 》WAV/百度

[复制链接]
 成长值: 190

75

主题

803

帖子

1万

积分

VIP1

Rank: 4

积分
11637
发表于 2016-11-16 12:02:36 | 显示全部楼层 |阅读模式



如图,不知道该放在摇滚金属还是日韩无损了,日本视觉摇滚,歌曲列表实在不会打日文字,看图吧,见谅
Exact Audio Copy V1.3 from 2. September 2016

EAC 抓取日志文件从16. 十一月 2016, 10:45

未知艺术家 / 未知标题

使用驱动器  :HL-DT-STDVDROM DH50N   Adapter: 1  ID: 0

读取模式 : 暴发

读取偏移校正:               : 0
读取 Lead-In 和 Lead-Out : 否
用静音填充抓取中丢失偏移的采样       : 是
去除首尾静音块               : 否
在CRC 计算中使用了空样本       : 是
已用接口                  : Win NT 及 2000 本地 Win32 接口
间隙处理                  : 没检测到,因此追加到上一曲目

所用输出模式: : 内部 WAV 函数
样本格式    : 44.100 Hz; 16 Bit; 立体声


已抓取 CD 的 TOC

     音轨 |    起始    |    长度    |  起始扇区  |  结束扇区  
    --------------------------------------------
      1 |  0:00.00 |  4:46.37 |      0 |  21486
      2 |  4:46.37 |  4:23.45 |  21487 |  41256
      3 |  9:10.07 |  5:09.43 |  41257 |  64474
      4 | 14:19.50 |  4:08.27 |  64475 |  83101
      5 | 18:28.02 |  5:27.18 |  83102 | 107644
      6 | 23:55.20 |  2:28.55 | 107645 | 118799
      7 | 26:24.00 |  5:31.17 | 118800 | 143641
      8 | 31:55.17 |  3:57.70 | 143642 | 161486
      9 | 35:53.12 |  4:20.18 | 161487 | 181004
     10 | 40:13.30 |  5:39.72 | 181005 | 206501
     11 | 45:53.27 |  0:27.73 | 206502 | 208599
     12 | 46:21.25 |  4:50.02 | 208600 | 230351


音轨  1

     文件名 D:\抓轨\新建文件夹\01 音轨01.wav

     计时问题 0:00:21
     计时问题 0:00:43

     峰值电平 98.6 %
     抓取速度 14.2 X
     复制 CRC E4F8E85B
     复制结束

音轨  2

     文件名 D:\抓轨\新建文件夹\02 音轨02.wav

     峰值电平 98.8 %
     抓取速度 24.0 X
     复制 CRC 343D9C85
     复制成功

音轨  3

     文件名 D:\抓轨\新建文件夹\03 音轨03.wav

     峰值电平 98.1 %
     抓取速度 26.3 X
     复制 CRC 8B6D7CD5
     复制成功

音轨  4

     文件名 D:\抓轨\新建文件夹\04 音轨04.wav

     峰值电平 98.8 %
     抓取速度 28.4 X
     复制 CRC 07BD54C3
     复制成功

音轨  5

     文件名 D:\抓轨\新建文件夹\05 音轨05.wav

     峰值电平 99.8 %
     抓取速度 30.4 X
     复制 CRC 975072C9
     复制成功

音轨  6

     文件名 D:\抓轨\新建文件夹\06 音轨06.wav

     峰值电平 94.8 %
     抓取速度 31.9 X
     复制 CRC 1F653999
     复制成功

音轨  7

     文件名 D:\抓轨\新建文件夹\07 音轨07.wav

     峰值电平 99.9 %
     抓取速度 33.5 X
     复制 CRC B56F10C5
     复制成功

音轨  8

     文件名 D:\抓轨\新建文件夹\08 音轨08.wav

     峰值电平 99.9 %
     抓取速度 35.2 X
     复制 CRC CCA58B78
     复制成功

音轨  9

     文件名 D:\抓轨\新建文件夹\09 音轨09.wav

     峰值电平 99.1 %
     抓取速度 36.6 X
     复制 CRC D87D0E34
     复制成功

音轨 10

     文件名 D:\抓轨\新建文件夹\10 音轨10.wav

     峰值电平 98.6 %
     抓取速度 38.3 X
     复制 CRC 4A458833
     复制成功

音轨 11

     文件名 D:\抓轨\新建文件夹\11 音轨11.wav

     峰值电平 87.6 %
     抓取速度 37.4 X
     复制 CRC 77A49463
     复制成功

音轨 12

     文件名 D:\抓轨\新建文件夹\12 音轨12.wav

     峰值电平 100.0 %
     抓取速度 40.1 X
     复制 CRC FE27EDDD
     复制成功

没有错误发生




游客,如果您要查看本帖隐藏内容请回复


本帖子中包含更多资源

您需要 登录 才可以下载或查看,没有帐号?注册

x

评分

参与人数 1CD +240 收起 理由
最终之战 + 240 感谢分享资源,CD包因你而精彩.

查看全部评分




上一篇:姜育恒《生命与爱》[1993/WAV+CUE/整轨/百度云]
下一篇:原抓:民谣 森田童子《精选集》1993/Wav/BD

0

主题

337

帖子

1808

积分

当红偶像

Rank: 4

积分
1808

社区QQ达人

发表于 2016-11-16 12:34:29 | 显示全部楼层
加油加油,音乐分享精神不死!

0

主题

715

帖子

811

积分

职业歌手

Rank: 3Rank: 3

积分
811
发表于 2016-11-17 08:29:27 | 显示全部楼层
download it and find out how good this album is
您需要登录后才可以回帖 登录 | 注册

本版积分规则

快速回复 返回顶部 返回列表