查看: 171|回复: 0

[欧美] 原抓:Ashley Macisaac《Ashley MacIsaac》2003/WAV/百度

[复制链接]

3082

主题

4257

帖子

55万

积分

音乐主神

Rank: 10Rank: 10Rank: 10

积分
553137

社区QQ达人精华帖达人分享勋章灌水勋章

发表于 2016-11-15 18:00:52 | 显示全部楼层 |阅读模式

注册会员,获得无损资源下载地址,享受高品质音乐。

您需要 登录 才可以下载或查看,没有帐号?注册

x
b9979f85135b4a64bea8fc4a30440d6f.jpg



Ashley Dwayne MacIsaac (born February 24, 1975) is a Canadian fiddler, singer and songwriter from Cape Breton Island. He has received three Juno Awards, winning for Best New Solo Artist and Best Roots & Traditional Album – Solo at the Juno Awards of 1996, and for Best Instrumental Artist at the Juno Awards of 1997. His 1995 album Hi™ How Are You Today? was a double-platinum selling Canadian record. MacIsaac published an autobiography, Fiddling with Disaster in 2003.

QQ截图20161115175617.jpg QQ截图20161115175627.jpg QQ截图20161115175646.jpg QQ截图20161115175657.jpg QQ截图20161115175640.jpg



专辑曲目:

01 Cello Song
02 Lay Me Down
03 Save Me From Tomorrow
04 I Don't Need This
05 Grapes
06 To America We Go
07 Chorus Jig The King's Reel
08 The Wedding Funeral
09 Captain America
10 Mull Of Kintyre
11 Bog An Login
12 This Is My Father
13 Fairy Dance

QQ截图20161115173111.jpg



试听频谱:

QQ截图20161115180012.jpg



Exact Audio Copy V1.3 from 2. September 2016

EAC 抓取日志文件从15. 十一月 2016, 17:31

未知艺术家 / 未知标题

使用驱动器  :PIONEER DVD-RW  DVR-220L   Adapter: 1  ID: 0

读取模式 : 暴发

读取偏移校正:               : 0
读取 Lead-In 和 Lead-Out : 否
用静音填充抓取中丢失偏移的采样       : 是
去除首尾静音块               : 否
在CRC 计算中使用了空样本       : 是
已用接口                  : Win NT 及 2000 本地 Win32 接口
间隙处理                  : 没检测到,因此追加到上一曲目

所用输出模式: : 内部 WAV 函数
样本格式    : 44.100 Hz; 16 Bit; 立体声


已抓取 CD 的 TOC

     音轨 |    起始    |    长度    |  起始扇区  |  结束扇区  
    --------------------------------------------
      1 |  0:00.00 |  3:44.32 |      0 |  16831
      2 |  3:44.32 |  3:58.65 |  16832 |  34746
      3 |  7:43.22 |  4:02.63 |  34747 |  52959
      4 | 11:46.10 |  3:56.00 |  52960 |  70659
      5 | 15:42.10 |  3:36.10 |  70660 |  86869
      6 | 19:18.20 |  3:41.72 |  86870 | 103516
      7 | 23:00.17 |  2:51.33 | 103517 | 116374
      8 | 25:51.50 |  4:30.32 | 116375 | 136656
      9 | 30:22.07 |  3:44.23 | 136657 | 153479
     10 | 34:06.30 |  4:48.55 | 153480 | 175134
     11 | 38:55.10 |  2:05.12 | 175135 | 184521
     12 | 41:00.22 |  4:07.45 | 184522 | 203091
     13 | 45:07.67 |  3:37.53 | 203092 | 219419


音轨  1

     文件名 C:\Users\Administrator\Desktop\新建文件夹\01 音轨01.wav

     可疑位置 0:00:00 - 0:00:01
     可疑位置 0:00:08 - 0:00:21
     计时问题 0:01:59

     峰值电平 99.6 %
     抓取速度 0.8 X
     复制 CRC 565E73A3
     复制结束

音轨  2

     文件名 C:\Users\Administrator\Desktop\新建文件夹\02 音轨02.wav

     峰值电平 98.8 %
     抓取速度 17.6 X
     复制 CRC F85E4D94
     复制成功

音轨  3

     文件名 C:\Users\Administrator\Desktop\新建文件夹\03 音轨03.wav

     峰值电平 98.8 %
     抓取速度 19.4 X
     复制 CRC 694DA1BE
     复制成功

音轨  4

     文件名 C:\Users\Administrator\Desktop\新建文件夹\04 音轨04.wav

     峰值电平 98.8 %
     抓取速度 20.4 X
     复制 CRC D41E4AD8
     复制成功

音轨  5

     文件名 C:\Users\Administrator\Desktop\新建文件夹\05 音轨05.wav

     峰值电平 98.8 %
     抓取速度 22.2 X
     复制 CRC 54D26E35
     复制成功

音轨  6

     文件名 C:\Users\Administrator\Desktop\新建文件夹\06 音轨06.wav

     计时问题 0:00:00

     峰值电平 98.8 %
     抓取速度 22.6 X
     复制 CRC 3760BB20
     复制结束

音轨  7

     文件名 C:\Users\Administrator\Desktop\新建文件夹\07 音轨07.wav

     峰值电平 98.8 %
     抓取速度 24.5 X
     复制 CRC FD8EA523
     复制成功

音轨  8

     文件名 C:\Users\Administrator\Desktop\新建文件夹\08 音轨08.wav

     峰值电平 98.8 %
     抓取速度 25.8 X
     复制 CRC 4C295F5C
     复制成功

音轨  9

     文件名 C:\Users\Administrator\Desktop\新建文件夹\09 音轨09.wav

     峰值电平 98.8 %
     抓取速度 26.0 X
     复制 CRC FD652A57
     复制成功

音轨 10

     文件名 C:\Users\Administrator\Desktop\新建文件夹\10 音轨10.wav

     峰值电平 98.8 %
     抓取速度 28.2 X
     复制 CRC 4B1218D7
     复制成功

音轨 11

     文件名 C:\Users\Administrator\Desktop\新建文件夹\11 音轨11.wav

     峰值电平 62.5 %
     抓取速度 28.9 X
     复制 CRC BD9EBCD3
     复制成功

音轨 12

     文件名 C:\Users\Administrator\Desktop\新建文件夹\12 音轨12.wav

     峰值电平 98.8 %
     抓取速度 28.8 X
     复制 CRC F29848E8
     复制成功

音轨 13

     文件名 C:\Users\Administrator\Desktop\新建文件夹\13 音轨13.wav

     峰值电平 98.8 %
     抓取速度 30.9 X
     复制 CRC 5A35BEA0
     复制成功

没有错误发生

状态报告结尾

---- CUETools DB Plugin V2.1.6

[CTDB TOCID: UZSGnqqyEBhf0Hxp7e8zIAvf05o-] database access error: 无法解析此远程名称: 'db.cuetools.net'







游客,如果您要查看本帖隐藏内容请回复


评分

参与人数 1CD +240 包子 +5 收起 理由
最终之战 + 240 + 5 感谢分享资源,CD包因你而精彩.

查看全部评分




上一篇:原抓:Joe Satriani《Super colossal》2006/WAV/百度
下一篇:最终原抓:沼泽乐队《城市》2005/WAV/BD
您需要登录后才可以回帖 登录 | 注册

本版积分规则

快速回复 返回顶部 返回列表