查看: 150|回复: 1

[欧美] 原抓:Joe Satriani《Super colossal》2006/WAV/百度

[复制链接]

3083

主题

4258

帖子

55万

积分

音乐主神

Rank: 10Rank: 10Rank: 10

积分
553397

社区QQ达人精华帖达人分享勋章灌水勋章

发表于 2016-11-15 16:54:47 | 显示全部楼层 |阅读模式

注册会员,获得无损资源下载地址,享受高品质音乐。

您需要 登录 才可以下载或查看,没有帐号?注册

x
QQ截图20161115164506.jpg


1979年,乔和鼓手杰夫·加密泰力、贝司手安迪·弥尔顿一起组建了一支流行乐队:“广场”。后来这种能量巨大的三人结构 乐队形式一直伴随着乔的个演艺生涯。1983年圣诞节,乐认休 息的三个星期中,乔以闪电速度注册了自的唱片发行公司“奇 妙音乐”和以她妻子的名字命名的独立制作公司“鲁华娜”。在 推出了一张录有五首纯吉他音乐的EP专辑之后,乐队的另外两位成员开始讥讽他“神经错乱”,并预测他的录音生涯将不了了之。乔不为所动,反而以更大的热情,用5000美金的超低成本,于1985年制作完成首张完整的纯吉他音乐专辑《不属于这个星球》。直至今天,乔仍用“神经错乱”来赞美其他的优秀音乐 家。file:///C:\Users\Administrator\AppData\Roaming\Tencent\QQ\Temp\TempPic\C3UC6ADG)IJ6GC3P]ZA44W1.tmp乔·塞奇尼尽管《不属于这个星球》没收到什么反响,但经由史蒂夫·范的大力推荐,为乔赢得了一家唱片公司的录音合同。这时乔以巫师般的狂热钻研吉他演奏技巧,风格日渐成熟。1987年的第二张个人专辑《与魔同行》推出不久即达白金并获得葛莱美奖提 名。1988年,乔两度中断自己的巡演,这期间留下的三首现场录音后来被整理成EP专辑《第11号梦》,使乔再获葛莱美提名。在1989年的专辑《蓝色梦中飞行》中,乔一口气录制了18首曲子,并演唱了其中6首,只要听听其中的《我相信》,就可知乔作为一名歌手也功力不凡。1992年的专辑《极端分子》刚一推出就上了Billboard榜第24名,其中的主打曲目《夏日之歌》后来 被索尼唱片公司用作纪念CD问世10周年的特别歌曲。1993年乔·塞奇尼重磅出击,推出双套专辑《时间机器》。第一张中收录了一批历年积攒的录音棚旧作和海外发行版本;第二张中则是14首现场录音。为《时间机器》而作的巡演场场爆满,被誉为摇滚史上难得一见的奇妙之旅。1995年乔·塞奇尼推出第七张专辑《乔·塞奇尼》。之后经过一年筹备,由乔·塞奇尼、史蒂夫·范和艾力克约翰逊组成的90年代摇滚乐坛的最强吉他阵容G3乐队开始在北美洲巡演。这场历时24天的吉他盛会使得铁杆摇滚乐迷欣喜若狂。之后G3推出《音乐会实况》专辑和录像带刚一面市就被抢购一空。1997年5月G3远征欧洲,6月又回师北美、吉他巫师的神话在一场场激动人心的吉他演奏中延续。

QQ截图20161115164658.jpg QQ截图20161115164646.jpg QQ截图20161115164711.jpg



专辑曲目:

专辑曲目:

1. Super Colossal
2. Just Like Lightnin'
3. It's So Good
4. Redshift Riders
5. Ten Words
6. A Cool New Way
7. One Robot's Dream
8. The Meaning of Love
9. Made of Tears
10. Theme for a Strange World
11. Movin' On
12. A Love Eternal
13. Crowd Chant




QQ截图20161115153515.jpg


试听频谱

QQ截图20161115164800.jpg


Exact Audio Copy V1.3 from 2. September 2016

EAC 抓取日志文件从15. 十一月 2016, 15:37

未知艺术家 / 未知标题

使用驱动器  :PIONEER DVD-RW  DVR-220L   Adapter: 1  ID: 0

读取模式 : 暴发

读取偏移校正:               : 0
读取 Lead-In 和 Lead-Out : 否
用静音填充抓取中丢失偏移的采样       : 是
去除首尾静音块               : 否
在CRC 计算中使用了空样本       : 是
已用接口                  : Win NT 及 2000 本地 Win32 接口
间隙处理                  : 没检测到,因此追加到上一曲目

所用输出模式: : 内部 WAV 函数
样本格式    : 44.100 Hz; 16 Bit; 立体声


已抓取 CD 的 TOC

     音轨 |    起始    |    长度    |  起始扇区  |  结束扇区  
    --------------------------------------------
      1 |  0:00.00 |  4:14.55 |      0 |  19104
      2 |  4:14.55 |  4:01.68 |  19105 |  37247
      3 |  8:16.48 |  4:14.63 |  37248 |  56360
      4 | 12:31.36 |  4:50.00 |  56361 |  78110
      5 | 17:21.36 |  3:28.44 |  78111 |  93754
      6 | 20:50.05 |  6:13.36 |  93755 | 121765
      7 | 27:03.41 |  6:16.06 | 121766 | 149971
      8 | 33:19.47 |  4:34.74 | 149972 | 170595
      9 | 37:54.46 |  5:32.64 | 170596 | 195559
     10 | 43:27.35 |  4:39.38 | 195560 | 216522
     11 | 48:06.73 |  4:05.45 | 216523 | 234942
     12 | 52:12.43 |  3:33.67 | 234943 | 250984
     13 | 55:46.35 |  3:14.73 | 250985 | 265607


音轨  1

     文件名 C:\Users\Administrator\Desktop\新建文件夹\01 音轨01.wav

     计时问题 0:00:01
     计时问题 0:00:06 - 0:00:07

     峰值电平 100.0 %
     抓取速度 7.9 X
     复制 CRC 0D4D8EBE
     复制结束

音轨  2

     文件名 C:\Users\Administrator\Desktop\新建文件夹\02 音轨02.wav

     峰值电平 100.0 %
     抓取速度 11.0 X
     复制 CRC 706574A4
     复制成功

音轨  3

     文件名 C:\Users\Administrator\Desktop\新建文件夹\03 音轨03.wav

     峰值电平 100.0 %
     抓取速度 12.0 X
     复制 CRC 44781153
     复制成功

音轨  4

     文件名 C:\Users\Administrator\Desktop\新建文件夹\04 音轨04.wav

     峰值电平 100.0 %
     抓取速度 13.1 X
     复制 CRC 5EB3E278
     复制成功

音轨  5

     文件名 C:\Users\Administrator\Desktop\新建文件夹\05 音轨05.wav

     峰值电平 100.0 %
     抓取速度 14.0 X
     复制 CRC 3F123525
     复制成功

音轨  6

     文件名 C:\Users\Administrator\Desktop\新建文件夹\06 音轨06.wav

     峰值电平 100.0 %
     抓取速度 15.0 X
     复制 CRC 8876C7A7
     复制成功

音轨  7

     文件名 C:\Users\Administrator\Desktop\新建文件夹\07 音轨07.wav

     峰值电平 100.0 %
     抓取速度 16.2 X
     复制 CRC 0F020712
     复制成功

音轨  8

     文件名 C:\Users\Administrator\Desktop\新建文件夹\08 音轨08.wav

     峰值电平 100.0 %
     抓取速度 17.2 X
     复制 CRC 559DE6D3
     复制成功

音轨  9

     文件名 C:\Users\Administrator\Desktop\新建文件夹\09 音轨09.wav

     峰值电平 100.0 %
     抓取速度 18.0 X
     复制 CRC DEFAC9B1
     复制成功

音轨 10

     文件名 C:\Users\Administrator\Desktop\新建文件夹\10 音轨10.wav

     峰值电平 100.0 %
     抓取速度 18.8 X
     复制 CRC 150B7043
     复制成功

音轨 11

     文件名 C:\Users\Administrator\Desktop\新建文件夹\11 音轨11.wav

     峰值电平 100.0 %
     抓取速度 19.5 X
     复制 CRC EAC063E3
     复制成功

音轨 12

     文件名 C:\Users\Administrator\Desktop\新建文件夹\12 音轨12.wav

     峰值电平 100.0 %
     抓取速度 20.0 X
     复制 CRC 5719A944
     复制成功

音轨 13

     文件名 C:\Users\Administrator\Desktop\新建文件夹\13 音轨13.wav

     峰值电平 100.0 %
     抓取速度 20.5 X
     复制 CRC 9C678EDF
     复制成功

没有错误发生

状态报告结尾

---- CUETools DB Plugin V2.1.6

[CTDB TOCID: o1z_LeJ7vmQHD9U8GBmNv71QxeE-] found
Submit result: o1z_LeJ7vmQHD9U8GBmNv71QxeE- has been confirmed
Track | CTDB Status
  1   | (296/297) Accurately ripped
  2   | (297/297) Accurately ripped
  3   | (297/297) Accurately ripped
  4   | (296/297) Accurately ripped
  5   | (296/297) Accurately ripped
  6   | (292/297) Accurately ripped
  7   | (297/297) Accurately ripped
  8   | (297/297) Accurately ripped
  9   | (293/297) Accurately ripped
10   | (293/297) Accurately ripped
11   | (295/297) Accurately ripped
12   | (292/297) Accurately ripped
13   | (292/297) Accurately ripped





游客,如果您要查看本帖隐藏内容请回复


评分

参与人数 1CD +240 收起 理由
最终之战 + 240 感谢分享资源,CD包因你而精彩.

查看全部评分




上一篇:最终原抓:布衣《21号公路》2016/WAV/度盘
下一篇:原抓:Ashley Macisaac《Ashley MacIsaac》2003/WAV/百度

252

主题

1073

帖子

6万

积分

天王巨星

金属๑۩۞۩๑王国

Rank: 7Rank: 7Rank: 7

积分
62802

社区QQ达人分享勋章灌水勋章精华帖达人

发表于 2016-11-27 17:26:20 | 显示全部楼层
看到老乔了,收下了,资源真是丰富无比!
瞬间死亡115账号:12142694

互助求砖金属q群:295379995
您需要登录后才可以回帖 登录 | 注册

本版积分规则

快速回复 返回顶部 返回列表