查看: 115|回复: 0

[欧美] 原抓:Vanessa Carlton《Harmonium》2004/WAV/百度

[复制链接]

3082

主题

4257

帖子

55万

积分

音乐主神

Rank: 10Rank: 10Rank: 10

积分
553137

社区QQ达人精华帖达人分享勋章灌水勋章

发表于 2016-11-15 14:18:22 | 显示全部楼层 |阅读模式

注册会员,获得无损资源下载地址,享受高品质音乐。

您需要 登录 才可以下载或查看,没有帐号?注册

x
本帖最后由 metal 于 2016-11-15 14:19 编辑

18047b215dac4d528864d4f42eb0c563.jpg QQ截图20161115141034.jpg



钢琴玉女凡妮莎莺声初试专辑 一举成名(Vanessa Carlton Be Not Nobody) 空降Billboard流行专辑榜No.5一举成名大碟,坐在钢琴前的Vanessa Carlton/凡妮莎卡顿总是光芒四射,用她精湛的钢琴演奏技巧、动人的旋律以及引人入胜的歌词来传达情感丰富的音乐语言。

出生于名为Milford的宾州小,Vanessa Carlton在成长的过程中总是有音乐相伴,母亲是古典钢琴老师、父亲是Pink Floyd的头号歌迷,因此很早就广泛接触到从莫扎特到Pink Floyd、从Fleetwood Mac到PJ Harvey、从Neil Young到萧邦的各类音乐;在她终日辛勤的练琴之下展现了惊人的潜能和音乐天赋,8岁就完成生平的第一部作曲作品。

持续累积音乐创作的她,从17岁开始在纽约下曼哈顿的酒吧演出;她清新自然的歌声与创作受到音乐大厂Interscope的高层Jimmy Iovine的赏识,于是迅速获得一纸合约。历经一年的精心雕琢,在A&M唱片公司总裁Ron Fair亲自打造的首航专辑【Be Not Nobody/一举成名】中,Vanessa Carlton以她流行灵魂唱腔诠释从古典到经典摇滚的多元曲风,时而柔情似水、时而热情如火、时而朴实真诚。从洋溢华尔滋风情的-Ordinary Day-揭开序曲,Vanessa Carlton带领乐迷进行一趟游历异想境地的奇幻旅程;热情洋溢的首发单曲-A Thousand Miles-在Billboard流行、成人单曲榜双双攀升Top 5;而流行曲-Pretty Baby-、绝美交响乐烘托着的-Twilight-和强力节拍的硬式-Unsung-…在在展现Vanessa Carlton的不同风情,而她重新演Rolling Stones冠军名曲-Paint It Black-的声音表情,更让人惊艳不已。唤醒人类深层欲望、引起强烈情绪共鸣的【Be Not Nobody】更备受乐评肯定,滚石杂志将她列名为2002年最值得期待的十位艺人之一、称她为「流行版的Fiona Apple」、赞赏她纯熟严谨的钢琴弹奏技巧,并认为其音乐作品蕴含媲美Tori Amos的古典元素、丰富乐音及的和谐合声

QQ截图20161115141221.jpg QQ截图20161115141232.jpg QQ截图20161115141310.jpg QQ截图20161115141253.jpg QQ截图20161115141242.jpg



专辑曲目:


01. White Houses
02. Who's to Say
03. Annie
04. San Francisco
05. Afterglow
06. Private Radio
07. Streets Have No Name
08. C'est la Vie
09. Papa
10. She Floats
11. Wreckage


QQ截图20161115134820.jpg



Exact Audio Copy V1.3 from 2. September 2016

EAC 抓取日志文件从15. 十一月 2016, 13:48

未知艺术家 / 未知标题

使用驱动器  :PIONEER DVD-RW  DVR-220L   Adapter: 1  ID: 0

读取模式 : 暴发

读取偏移校正:               : 0
读取 Lead-In 和 Lead-Out : 否
用静音填充抓取中丢失偏移的采样       : 是
去除首尾静音块               : 否
在CRC 计算中使用了空样本       : 是
已用接口                  : Win NT 及 2000 本地 Win32 接口
间隙处理                  : 没检测到,因此追加到上一曲目

所用输出模式: : 内部 WAV 函数
样本格式    : 44.100 Hz; 16 Bit; 立体声


已抓取 CD 的 TOC

     音轨 |    起始    |    长度    |  起始扇区  |  结束扇区  
    --------------------------------------------
      1 |  0:00.00 |  3:45.40 |      0 |  16914
      2 |  3:45.40 |  4:51.48 |  16915 |  38787
      3 |  8:37.13 |  4:48.03 |  38788 |  60390
      4 | 13:25.16 |  4:12.46 |  60391 |  79336
      5 | 17:37.62 |  3:56.20 |  79337 |  97056
      6 | 21:34.07 |  2:59.57 |  97057 | 110538
      7 | 24:33.64 |  3:27.21 | 110539 | 126084
      8 | 28:01.10 |  2:34.38 | 126085 | 137672
      9 | 30:35.48 |  2:39.21 | 137673 | 149618
     10 | 33:14.69 |  5:15.05 | 149619 | 173248
     11 | 38:29.74 |  2:17.18 | 173249 | 183541
     12 | 43:19.17 | 19:04.60 | 194942 | 280801


音轨  1

     文件名 C:\Users\Administrator\Desktop\01 音轨01.wav

     可疑位置 0:00:00 - 0:00:36
     可疑位置 0:01:01
     计时问题 0:01:20
     可疑位置 0:01:39 - 0:01:41
     计时问题 0:02:34

     峰值电平 99.9 %
     抓取速度 0.2 X
     复制 CRC 3006F348
     复制结束

音轨  2

     文件名 C:\Users\Administrator\Desktop\02 音轨02.wav

     峰值电平 98.8 %
     抓取速度 10.8 X
     复制 CRC 02774995
     复制成功

音轨  3

     文件名 C:\Users\Administrator\Desktop\03 音轨03.wav

     峰值电平 92.0 %
     抓取速度 12.1 X
     复制 CRC ECB6D06D
     复制成功

音轨  4

     文件名 C:\Users\Administrator\Desktop\04 音轨04.wav

     峰值电平 99.9 %
     抓取速度 12.6 X
     复制 CRC 05C33687
     复制成功

音轨  5

     文件名 C:\Users\Administrator\Desktop\05 音轨05.wav

     峰值电平 98.8 %
     抓取速度 14.4 X
     复制 CRC 1DF197F2
     复制成功

音轨  6

     文件名 C:\Users\Administrator\Desktop\06 音轨06.wav

     峰值电平 98.8 %
     抓取速度 13.1 X
     复制 CRC EC6FF4FC
     复制成功

音轨  7

     文件名 C:\Users\Administrator\Desktop\07 音轨07.wav

     峰值电平 98.8 %
     抓取速度 15.7 X
     复制 CRC 7164D6C8
     复制成功

音轨  8

     文件名 C:\Users\Administrator\Desktop\08 音轨08.wav

     峰值电平 99.8 %
     抓取速度 14.3 X
     复制 CRC 6794CBA3
     复制成功

音轨  9

     文件名 C:\Users\Administrator\Desktop\09 音轨09.wav

     峰值电平 98.8 %
     抓取速度 16.8 X
     复制 CRC 4AEAA4F0
     复制成功

音轨 10

     文件名 C:\Users\Administrator\Desktop\10 音轨10.wav

     峰值电平 98.8 %
     抓取速度 17.6 X
     复制 CRC 2709B4CC
     复制成功

音轨 11

     文件名 C:\Users\Administrator\Desktop\11 音轨11.wav

     峰值电平 87.0 %
     抓取速度 16.5 X
     复制 CRC 151E045F
     复制成功

没有错误发生

状态报告结尾

---- CUETools DB Plugin V2.1.6

[CTDB TOCID: 2o6ooTLe1mPI.3zc4YJxuy5YzIE-] found
Submit result: insufficient quality
Track | CTDB Status
  1   | ( 0/80) No match
  2   | (80/80) Accurately ripped
  3   | (80/80) Accurately ripped
  4   | (80/80) Accurately ripped
  5   | (79/80) Accurately ripped
  6   | (80/80) Accurately ripped
  7   | (80/80) Accurately ripped
  8   | (80/80) Accurately ripped
  9   | (80/80) Accurately ripped
10   | (79/80) Accurately ripped
11   | (79/80) Accurately ripped

试听频谱

QQ截图20161115135818.jpg



游客,如果您要查看本帖隐藏内容请回复


评分

参与人数 1CD +240 收起 理由
最终之战 + 240 这丫头脸真是够大的。。。大饼子脸O(∩_∩).

查看全部评分




上一篇:原抓 : 原野小兵兵《Rugrats Go Wild》2002/WAV/百度
下一篇:最终原抓:布衣《那么久》2007/WAV/度盘
您需要登录后才可以回帖 登录 | 注册

本版积分规则

快速回复 返回顶部 返回列表