查看: 107|回复: 0

[欧美] 原抓 : 原野小兵兵《Rugrats Go Wild》2002/WAV/百度

[复制链接]

3083

主题

4258

帖子

55万

积分

音乐主神

Rank: 10Rank: 10Rank: 10

积分
553397

社区QQ达人精华帖达人分享勋章灌水勋章

发表于 2016-11-15 12:23:59 | 显示全部楼层 |阅读模式

注册会员,获得无损资源下载地址,享受高品质音乐。

您需要 登录 才可以下载或查看,没有帐号?注册

x
QQ截图20161115115446.jpg


导演: 约翰·艾格 / 诺顿·维基
编剧: Kate Boutilier
主演: 伊丽莎白·戴利 / 南茜·卡特莱特 / Kath Soucie / Dionne Quan / Cheryl Chase
类型: 喜剧 / 动画 / 家庭 / 冒险
制片国家/地区: 美国
语言: 英语
上映日期: 2003-06-13(美国)



QQ图片20161115113234.jpg QQ图片20161115113238.jpg QQ图片20161115113222.jpg QQ图片20161115113225.jpg QQ图片20161115113231.jpg QQ图片20161115113229.jpg




       鲁格拉特兹家那群出了名的闹孩子们被遗弃在波力妮西亚无人的荒岛上,这里他们遇到了跟自己非常相似的汤米,并开始了他们的野外冒险。
  斯派克终于意识到当它跟伊莱扎说话的时候,狂吠比撕咬更能让她理解它的意思。残暴的安杰丽卡遇到了跟她旗鼓相当的黛比。胆小的查科尔在和野孩子汤尼在一起后才发现一直隐藏在自己体内的那个勇敢的男孩。吃虫子的双胞胎兄弟菲尔和利尔在见识过野外虫子世界真实的一面后后改吃了蔬菜。而汤米在与耐杰尔的比较之下,发现自己只不过是个纸上谈兵的孩子。
  所有的事情都开始于汤米的父亲斯图带着家里人做一次家庭旅行,这次水上旅行让他们来到个荒芜的小岛。在只有美洲豹的热带他们成了这里唯一的人类。他们必须团结一致才能重新回到人类世界,鲁格拉特兹家和索恩巴里斯家变成了一个幸福的大家庭。




01 Message in a bottle
02 Big bad cat
03 She's on fire
04 Island princess
05 Lizard love
06 Ready to roll
07 The moring after
08 Atomic dog
09 Dresses and shoes
10 Should I stay or should I go
11 Lust for life
12 Phil's diapey's hanging low
13 It's a jungle out here
14 Changing faces

11.jpg



试听频谱

QQ截图20161115120628.jpg


Exact Audio Copy V1.3 from 2. September 2016

EAC 抓取日志文件从15. 十一月 2016, 11:37

未知艺术家 / 未知标题

使用驱动器  :PIONEER DVD-RW  DVR-220L   Adapter: 1  ID: 0

读取模式 : 暴发

读取偏移校正:               : 0
读取 Lead-In 和 Lead-Out : 否
用静音填充抓取中丢失偏移的采样       : 是
去除首尾静音块               : 否
在CRC 计算中使用了空样本       : 是
已用接口                  : Win NT 及 2000 本地 Win32 接口
间隙处理                  : 没检测到,因此追加到上一曲目

所用输出模式: : 内部 WAV 函数
样本格式    : 44.100 Hz; 16 Bit; 立体声


已抓取 CD 的 TOC

     音轨 |    起始    |    长度    |  起始扇区  |  结束扇区  
    --------------------------------------------
      1 |  0:00.00 |  4:12.19 |      0 |  18918
      2 |  4:12.19 |  3:15.18 |  18919 |  33561
      3 |  7:27.37 |  3:50.31 |  33562 |  50842
      4 | 11:17.68 |  2:32.31 |  50843 |  62273
      5 | 13:50.24 |  4:35.19 |  62274 |  82917
      6 | 18:25.43 |  2:51.38 |  82918 |  95780
      7 | 21:17.06 |  3:22.73 |  95781 | 111003
      8 | 24:40.04 |  4:45.16 | 111004 | 132394
      9 | 29:25.20 |  3:28.55 | 132395 | 148049
     10 | 32:54.00 |  3:09.41 | 148050 | 162265
     11 | 36:03.41 |  3:43.24 | 162266 | 179014
     12 | 39:46.65 |  3:01.69 | 179015 | 192658
     13 | 42:48.59 |  3:11.04 | 192659 | 206987
     14 | 45:59.63 |  3:42.02 | 206988 | 223639


音轨  1

     文件名 C:\Users\Administrator\Desktop\01 音轨01.wav

     计时问题 0:00:04

     峰值电平 96.1 %
     抓取速度 3.9 X
     复制 CRC 32E0A913
     复制结束

音轨  2

     文件名 C:\Users\Administrator\Desktop\02 音轨02.wav

     峰值电平 90.7 %
     抓取速度 4.4 X
     复制 CRC 891F34E0
     复制成功

音轨  3

     文件名 C:\Users\Administrator\Desktop\03 音轨03.wav

     峰值电平 96.1 %
     抓取速度 4.7 X
     复制 CRC 3632D159
     复制成功

音轨  4

     文件名 C:\Users\Administrator\Desktop\04 音轨04.wav

     峰值电平 77.0 %
     抓取速度 5.0 X
     复制 CRC DDA8F314
     复制成功

音轨  5

     文件名 C:\Users\Administrator\Desktop\05 音轨05.wav

     峰值电平 96.1 %
     抓取速度 5.4 X
     复制 CRC 39EA6DFA
     复制成功

音轨  6

     文件名 C:\Users\Administrator\Desktop\06 音轨06.wav

     峰值电平 96.1 %
     抓取速度 5.7 X
     复制 CRC D235DFE9
     复制成功

音轨  7

     文件名 C:\Users\Administrator\Desktop\07 音轨07.wav

     峰值电平 95.3 %
     抓取速度 5.9 X
     复制 CRC ED048285
     复制成功

音轨  8

     文件名 C:\Users\Administrator\Desktop\08 音轨08.wav

     峰值电平 92.8 %
     抓取速度 6.2 X
     复制 CRC 9930A42D
     复制成功

音轨  9

     文件名 C:\Users\Administrator\Desktop\09 音轨09.wav

     峰值电平 95.4 %
     抓取速度 6.5 X
     复制 CRC C2E7BABA
     复制成功

音轨 10

     文件名 C:\Users\Administrator\Desktop\10 音轨10.wav

     峰值电平 96.1 %
     抓取速度 6.8 X
     复制 CRC C3909043
     复制成功

音轨 11

     文件名 C:\Users\Administrator\Desktop\11 音轨11.wav

     峰值电平 92.8 %
     抓取速度 7.0 X
     复制 CRC 361D0A5D
     复制成功

音轨 12

     文件名 C:\Users\Administrator\Desktop\12 音轨12.wav

     峰值电平 96.1 %
     抓取速度 7.2 X
     复制 CRC 4C21807D
     复制成功

音轨 13

     文件名 C:\Users\Administrator\Desktop\13 音轨13.wav

     峰值电平 82.7 %
     抓取速度 7.4 X
     复制 CRC 032136D9
     复制成功

音轨 14

     文件名 C:\Users\Administrator\Desktop\14 音轨14.wav

     峰值电平 92.8 %
     抓取速度 7.6 X
     复制 CRC E33267CA
     复制成功

没有错误发生

状态报告结尾

---- CUETools DB Plugin V2.1.6

[CTDB TOCID: gWYRxxJ51.87QBFMfr3EVMAeM64-] found
Submit result: gWYRxxJ51.87QBFMfr3EVMAeM64- has been confirmed
Track | CTDB Status
  1   | (2/2) Accurately ripped
  2   | (2/2) Accurately ripped
  3   | (2/2) Accurately ripped
  4   | (2/2) Accurately ripped
  5   | (2/2) Accurately ripped
  6   | (2/2) Accurately ripped
  7   | (2/2) Accurately ripped
  8   | (2/2) Accurately ripped
  9   | (2/2) Accurately ripped
10   | (2/2) Accurately ripped
11   | (2/2) Accurately ripped
12   | (2/2) Accurately ripped
13   | (2/2) Accurately ripped
14   | (2/2) Accurately ripped





游客,如果您要查看本帖隐藏内容请回复

评分

参与人数 1CD +240 收起 理由
最终之战 + 240 卡通原声。。。

查看全部评分




上一篇:原抓:《The Scorpion King》2002/WAV/百度
下一篇:原抓:Vanessa Carlton《Harmonium》2004/WAV/百度
您需要登录后才可以回帖 登录 | 注册

本版积分规则

快速回复 返回顶部 返回列表